<?xml version="1.0" standalone="no"?>
<!DOCTYPE svg PUBLIC "-//W3C//DTD SVG 1.1//EN" "http://www.w3.org/Graphics/SVG/1.1/DTD/svg11.dtd">
<svg xmlns="http://www.w3.org/2000/svg">
<metadata>Generated by Fontastic.me</metadata>
<defs>
<font id="wvn-city" horiz-adv-x="512">
<font-face font-family="wvn-city" units-per-em="512" ascent="480" descent="-32"/>
<missing-glyph horiz-adv-x="512" />

<glyph glyph-name="search" unicode="&#76;" d="M320 512c-106 0-192-86-192-192 0-32 8-63 22-90l-133-133 0 0c-11-11-17-25-17-41 0-31 25-56 56-56 16 0 30 6 41 17l0 0 133 133c27-14 58-22 90-22 106 0 192 86 192 192 0 106-86 192-192 192z m-243-475c-5-5-13-9-21-9-15 0-28 13-28 28 0 8 4 15 9 21l0 0 129 129c11-15 25-29 40-40z m243 123c-88 0-160 72-160 160 0 88 72 160 160 160 88 0 160-72 160-160 0-88-72-160-160-160z m0 272c-62 0-112-50-112-112 0-4 4-8 8-8 4 0 8 4 8 8 0 53 43 96 96 96 4 0 8 4 8 8 0 4-4 8-8 8z"/>
<glyph glyph-name="user" unicode="&#117;" d="M498 59c-3 2-62 40-149 59 32 40 53 94 61 131 12 50 8 147-40 209-28 35-68 54-114 54-46 0-86-19-114-54-48-62-52-159-40-209 8-37 29-91 61-131-87-19-146-57-149-59-11-8-17-23-13-36 4-14 17-23 31-23l448 0c14 0 27 9 31 23 4 13-2 28-13 36z m-174 79l-5-7c-38-44-88-44-126 0l-5 7c-45 56-67 131-57 202 8 68 48 140 125 140 77 0 117-72 125-140 10-71-12-146-57-202z m-292-106c2 1 56 37 137 55l40 8c14-9 30-15 47-15 17 0 33 6 47 15l40-8c80-18 134-53 137-55z"/>
<glyph glyph-name="map" unicode="&#109;" d="M256 512c-107 0-194-87-194-194 0-108 152-318 194-318 31 0 194 210 194 318 0 107-87 194-194 194z m-1-290c-54 0-99 44-99 99 0 54 45 99 99 99 55 0 99-45 99-99 0-55-44-99-99-99z"/>
<glyph glyph-name="megaphone" unicode="&#65;" d="M400 512c-33 0-59-23-77-57l-1 0c-26-53-66-87-110-87l-148 0c-36 0-64-35-64-80 0-45 28-80 64-80 18 0 32-14 32-32l0-144c0-18 14-32 32-32l64 0c18 0 32 14 32 32l0 16c0 16-16 23-16 32l0 112c0 0 0 1 0 1 0 2 1 4 2 6 0 1 1 1 1 2 1 2 3 3 5 4 0 0 0 1 0 1 0 0 0 0 0 0 1 0 3 1 4 1 41-4 77-37 102-86l1 0c18-35 44-57 77-57 74 0 112 113 112 224 0 111-38 224-112 224z m-80-224c0 17 1 33 3 48l45 0c18 0 32-22 32-48 0-27-14-48-32-48l-45 0c-2 15-3 31-3 48z m-288 0c0 26 14 48 32 48l112 0c-10-12-16-29-16-48 0-19 6-36 16-48l-112 0c-18 0-32 21-32 48z m160-256l-64 0 0 144c0 12-3 23-9 32l11 0 0 0 49 0c-2-5-3-10-3-16l0-112c0-15 9-26 14-32 0-1 1-1 2-2z m20 208l-4 0 0 0c-18 0-32 21-32 48 0 26 14 48 32 48l4 0c30 0 58 12 83 32-5-25-7-53-7-80 0-27 2-55 7-80-25 20-53 32-83 32z m188-144c-32 0-60 46-73 112l41 0c36 0 64 35 64 80 0 45-28 80-64 80l-41 0c13 66 41 112 73 112 44 0 80-86 80-192 0-106-36-192-80-192z"/>
<glyph glyph-name="calendar" unicode="&#99;" d="M469 464l-69 0 0 32c0 9-7 16-16 16-9 0-16-7-16-16l0-32-96 0 0 32c0 9-7 16-16 16-9 0-16-7-16-16l0-32-96 0 0 32c0 9-7 16-16 16-9 0-16-7-16-16l0-32-69 0c-24 0-43-19-43-43l0-378c0-24 19-43 43-43l426 0c24 0 43 19 43 43l0 378c0 24-19 43-43 43z m11-421c0-6-5-11-11-11l-426 0c-6 0-11 5-11 11l0 378c0 6 5 11 11 11l69 0 0-32c0-9 7-16 16-16 9 0 16 7 16 16l0 32 96 0 0-32c0-9 7-16 16-16 9 0 16 7 16 16l0 32 96 0 0-32c0-9 7-16 16-16 9 0 16 7 16 16l0 32 69 0c6 0 11-5 11-11z m-368 277l64 0 0-48-64 0z m0-80l64 0 0-48-64 0z m0-80l64 0 0-48-64 0z m112 0l64 0 0-48-64 0z m0 80l64 0 0-48-64 0z m0 80l64 0 0-48-64 0z m112-160l64 0 0-48-64 0z m0 80l64 0 0-48-64 0z m0 80l64 0 0-48-64 0z"/>
<glyph glyph-name="phone" unicode="&#80;" d="M384 512l-256 0c-27 0-48-21-48-48l0-416c0-27 21-48 48-48l256 0c26 0 48 22 48 48l0 416c0 27-22 48-48 48z m16-464c0-9-7-16-16-16l-256 0c-9 0-16 7-16 16l0 32 288 0z m0 48l-288 0 0 320 288 0z m0 336l-288 0 0 32c0 9 7 16 16 16l256 0c9 0 16-7 16-16z m-112 24c0-4-4-8-8-8l-48 0c-4 0-8 4-8 8 0 4 4 8 8 8l48 0c4 0 8-4 8-8z m-16-400c0-4-4-8-8-8l-16 0c-4 0-8 4-8 8 0 4 4 8 8 8l16 0c4 0 8-4 8-8z"/>
<glyph glyph-name="trash" unicode="&#84;" d="M480 403c-2 25-23 45-48 45l-48 0 0 16c0 26-22 48-48 48l-160 0c-27 0-48-22-48-48l0-16-48 0c-26 0-46-20-48-45l0 0 0-35c0-18 14-32 32-32l0-272c0-35 29-64 64-64l256 0c35 0 64 29 64 64l0 272c18 0 32 14 32 32l0 35z m-320 61c0 9 7 16 16 16l160 0c9 0 16-7 16-16l0-16-192 0z m256-400c0-18-14-32-32-32l-256 0c-18 0-32 14-32 32l0 272 320 0z m32 320l0-16-384 0 0 32c0 9 7 16 16 16l352 0c9 0 16-7 16-16z m-304-320l32 0c9 0 16 7 16 16l0 208c0 9-7 16-16 16l-32 0c-9 0-16-7-16-16l0-208c0-9 7-16 16-16z m0 224l32 0 0-208-32 0z m96-224l32 0c9 0 16 7 16 16l0 208c0 9-7 16-16 16l-32 0c-9 0-16-7-16-16l0-208c0-9 7-16 16-16z m0 224l32 0 0-208-32 0z m96-224l32 0c9 0 16 7 16 16l0 208c0 9-7 16-16 16l-32 0c-9 0-16-7-16-16l0-208c0-9 7-16 16-16z m0 224l32 0 0-208-32 0z"/>
<glyph glyph-name="car" unicode="&#67;" d="M401 224c-23 0-43-19-43-43 0-23 20-42 43-42 24 0 43 19 43 42 0 24-19 43-43 43z m0-68c-14 0-26 11-26 25 0 15 12 26 26 26 14 0 26-11 26-26 0-14-12-25-26-25z m-290 68c-24 0-43-19-43-43 0-23 19-42 43-42 23 0 43 19 43 42 0 24-20 43-43 43z m0-68c-14 0-26 11-26 25 0 15 12 26 26 26 14 0 26-11 26-26 0-14-12-25-26-25z m392 68l0 51c0 4-2 7-5 8l-49 17c-18 30-43 59-98 69 0 0 0 0 0 0-102 14-178-9-227-68-57-1-115-19-115-51l0-26c-5 0-9-4-9-8l0-35c0-4 4-8 9-8l34 0c4 0 8 4 8 8 0 33 27 60 60 60 33 0 60-27 60-60 0-4 3-8 8-8l154 0c5 0 8 4 8 8 0 33 27 60 60 60 33 0 60-27 60-60 0-4 4-8 8-8l34 0c5 0 9 4 9 8l0 35c0 4-4 8-9 8z m-110 112c15-9 26-21 35-35l-35 0z m-103 20c18 0 38-1 59-4 10-2 19-4 27-7l0-44-86 0z m-17-1l0-54-126 0c32 33 73 51 126 54z m222-165l-18 0c-4 38-36 68-76 68-39 0-72-30-76-68l-138 0c-4 38-37 68-76 68-40 0-72-30-76-68l-18 0 0 17c5 0 9 4 9 9l0 25 8 0c5 0 9 4 9 9 0 4-4 8-9 8l-4 0c11 13 47 26 98 26l314 0 44-15 0-11-8 0c-5 0-9-4-9-8 0-5 4-9 9-9l8 0 0-25c0-5 4-9 9-9z"/>
<glyph glyph-name="music" unicode="&#77;" d="M475 448l0-320c0-10-3-18-9-25-7-8-15-14-25-18-10-4-20-7-29-9-10-2-19-3-28-3-9 0-18 1-28 3-9 2-19 5-29 9-10 4-18 10-25 18-6 7-9 15-9 25 0 10 3 18 9 25 7 8 15 14 25 18 10 4 20 7 29 9 10 2 19 3 28 3 20 0 38-4 55-11l0 153-220-68 0-202c0-10-3-18-9-26-7-7-15-13-25-17-10-4-20-7-29-9-10-2-19-3-28-3-9 0-18 1-28 3-9 2-19 5-29 9-10 4-18 10-25 17-6 8-9 16-9 26 0 9 3 18 9 25 7 8 15 13 25 18 10 4 20 7 29 9 10 2 19 3 28 3 20 0 38-4 55-11l0 276c0 6 2 11 5 16 4 5 9 8 14 10l238 73c2 1 5 1 8 1 8 0 14-2 19-8 6-5 8-11 8-19z"/>
<glyph glyph-name="download" unicode="&#100;" d="M384 128c0 5-2 9-5 13-4 3-8 5-13 5-5 0-10-2-13-5-4-4-6-8-6-13 0-5 2-9 6-13 3-3 8-5 13-5 5 0 9 2 13 5 3 4 5 8 5 13z m73 0c0 5-2 9-5 13-4 3-8 5-13 5-5 0-9-2-13-5-4-4-5-8-5-13 0-5 1-9 5-13 4-3 8-5 13-5 5 0 9 2 13 5 3 4 5 8 5 13z m37 64l0-91c0-8-3-15-8-20-6-5-12-8-20-8l-420 0c-8 0-14 3-20 8-5 5-8 12-8 20l0 91c0 8 3 14 8 19 6 6 12 8 20 8l133 0 38-38c11-11 24-16 39-16 15 0 28 5 39 16l39 38 132 0c8 0 14-2 20-8 5-5 8-11 8-19z m-93 163c3-8 2-15-4-20l-128-128c-4-4-8-6-13-6-5 0-9 2-13 6l-128 128c-6 5-7 12-4 20 3 7 9 11 17 11l73 0 0 128c0 5 2 9 6 13 3 3 7 5 12 5l74 0c5 0 9-2 12-5 4-4 6-8 6-13l0-128 73 0c8 0 14-4 17-11z"/>
<glyph glyph-name="note" unicode="&#110;" d="M503 391l-96 96c-6 6-15 9-23 9l-336 0c-26 0-48-22-48-48l0-384c0-26 22-48 48-48l416 0c26 0 48 22 48 48l0 304c0 8-3 17-9 23z m-23-327c0-9-7-16-16-16l-416 0c-9 0-16 7-16 16l0 384c0 9 7 16 16 16l320 0 0-64 0 0c0-27 21-48 48-48l64 0z m-48 304l-16 0c-18 0-32 14-32 32l0 0 0 64 96-96z m-184 16l80 0c4 0 8 4 8 8 0 4-4 8-8 8l-80 0c-4 0-8-4-8-8 0-4 4-8 8-8z m0-48l80 0c4 0 8 4 8 8 0 4-4 8-8 8l-80 0c-4 0-8-4-8-8 0-4 4-8 8-8z m-8-40c0-4 4-8 8-8l192 0c4 0 8 4 8 8 0 4-4 8-8 8l-192 0c-4 0-8-4-8-8z m200-88l-368 0c-4 0-8-4-8-8 0-4 4-8 8-8l368 0c4 0 8 4 8 8 0 4-4 8-8 8z m0-48l-368 0c-4 0-8-4-8-8 0-4 4-8 8-8l368 0c4 0 8 4 8 8 0 4-4 8-8 8z m0-48l-368 0c-4 0-8-4-8-8 0-4 4-8 8-8l368 0c4 0 8 4 8 8 0 4-4 8-8 8z m0 144l-368 0c-4 0-8-4-8-8 0-4 4-8 8-8l368 0c4 0 8 4 8 8 0 4-4 8-8 8z m-360 32l112 0c9 0 16 7 16 16l0 96c0 9-7 16-16 16l-112 0c-9 0-16-7-16-16l0-96c0-9 7-16 16-16z m16 96l80 0 0-64-80 0z"/>
<glyph glyph-name="mail" unicode="&#101;" d="M448 432l-384 0c-35 0-64-29-64-64l0-208c0-35 29-64 64-64l384 0c35 0 64 29 64 64l0 208c0 35-29 64-64 64z m-416-84l112-84-112-84z m448-188c0-18-14-32-32-32l-384 0c-18 0-32 14-32 32l125 94 70-52c9-7 19-10 29-10 10 0 20 3 29 10l70 52z m0 20l-112 84 112 84z m-205 34c-5-4-12-6-19-6-7 0-14 2-19 6l-66 50-14 10-125 94 0 0c0 18 14 32 32 32l384 0c18 0 32-14 32-32z"/>
<glyph glyph-name="clock" unicode="&#111;" d="M293 357l0-128c0-3-1-5-3-7-2-2-4-3-7-3l-91 0c-3 0-5 1-7 3-1 2-2 4-2 7l0 18c0 3 1 5 2 6 2 2 4 3 7 3l64 0 0 101c0 2 1 4 3 6 1 2 3 3 6 3l18 0c3 0 5-1 7-3 2-2 3-4 3-6z m118-101c0 28-7 54-20 78-14 24-33 43-57 57-24 13-50 20-78 20-28 0-54-7-78-20-24-14-43-33-57-57-13-24-20-50-20-78 0-28 7-54 20-78 14-24 33-43 57-57 24-13 50-20 78-20 28 0 54 7 78 20 24 14 43 33 57 57 13 24 20 50 20 78z m64 0c0-40-9-77-29-110-20-34-46-60-80-80-33-20-70-29-110-29-40 0-77 9-110 29-34 20-60 46-80 80-20 33-29 70-29 110 0 40 9 77 29 110 20 34 46 60 80 80 33 20 70 29 110 29 40 0 77-9 110-29 34-20 60-46 80-80 20-33 29-70 29-110z"/>
<glyph glyph-name="facebook" unicode="&#102;" d="M384 509l0-76-45 0c-17 0-28-3-33-10-6-7-9-17-9-31l0-54 84 0-11-85-73 0 0-216-87 0 0 216-73 0 0 85 73 0 0 62c0 36 10 63 29 83 20 19 47 29 80 29 28 0 49-1 65-3z"/>
<glyph glyph-name="twitter" unicode="&#116;" d="M481 395c-13-18-28-34-46-47 0-3 0-7 0-12 0-25-3-50-11-74-7-25-18-49-33-71-14-23-32-43-52-61-21-17-45-31-74-41-29-11-60-16-92-16-52 0-99 14-142 42 7-1 14-2 22-2 43 0 81 14 115 40-20 0-38 6-54 18-16 12-27 27-33 46 7-1 13-2 18-2 8 0 16 1 24 4-21 4-39 15-53 31-14 17-21 37-21 59l0 1c13-7 27-11 42-11-13 8-23 19-30 32-8 14-11 29-11 44 0 17 4 33 12 47 23-28 51-51 84-68 33-17 69-27 107-29-2 8-3 15-3 22 0 25 9 47 27 65 18 18 40 27 66 27 26 0 49-10 67-29 21 4 40 11 59 22-7-22-21-39-41-51 18 2 35 7 53 14z"/>
<glyph glyph-name="google-plus" unicode="&#103;" d="M228 285c0-7 3-14 9-21 7-6 14-13 23-19 8-6 17-13 25-21 9-8 16-18 22-30 7-12 10-25 10-40 0-17-5-34-14-50-14-23-34-40-60-51-27-11-55-16-86-16-25 0-48 4-70 11-22 8-38 21-49 40-7 11-11 24-11 37 0 16 5 30 13 43 9 13 20 24 34 33 25 15 63 25 115 28-6 8-10 15-13 22-3 6-5 13-5 20 0 7 2 15 6 25-8-1-15-1-19-1-28 0-52 9-71 27-20 19-29 42-29 70 0 16 3 31 10 45 7 15 16 28 28 38 15 12 32 22 52 28 21 6 41 9 63 9l119 0-39-25-38 0c14-12 25-25 32-38 7-13 11-29 11-46 0-14-2-26-7-37-5-11-10-20-17-26-6-7-13-13-20-19-6-6-12-11-17-18-4-6-7-12-7-18z m-41 27c7 0 14 2 22 5 7 3 14 7 19 12 10 11 15 26 15 46 0 11-2 23-5 35-3 13-8 25-14 37-6 12-14 22-24 30-10 8-21 12-33 12-8 0-16-2-24-6-8-4-14-9-19-15-9-11-13-26-13-46 0-8 1-18 3-28 2-9 5-19 9-29 4-10 9-19 15-26 5-8 13-15 21-20 8-5 18-7 28-7z m0-249c11 0 22 1 32 3 10 3 20 6 28 11 9 5 16 12 21 21 5 9 8 20 8 31 0 5-1 10-2 14-1 5-3 9-4 12-2 4-4 8-8 12-4 5-6 8-8 10-2 2-6 6-11 10-6 5-9 7-11 8-1 2-5 4-12 9-6 5-9 7-10 7-3 1-8 1-14 1-10 0-20-1-30-2-10-1-20-4-30-7-11-4-20-8-28-13-8-6-15-13-20-22-5-8-7-18-7-30 0-13 3-25 10-35 6-10 15-18 26-24 10-5 22-10 34-12 12-3 24-4 36-4z m232 250l60 0 0-31-60 0 0-63-30 0 0 63-61 0 0 31 61 0 0 62 30 0z"/>
<glyph glyph-name="youtube" unicode="&#121;" d="M314 157l0-61c0-12-4-19-11-19-5 0-9 2-13 6l0 86c4 5 8 7 13 7 7 0 11-7 11-19z m97-1l0-13-26 0 0 13c0 13 4 20 13 20 8 0 13-7 13-20z m-276 63l30 0 0 26-89 0 0-26 30 0 0-163 29 0z m82-163l25 0 0 141-25 0 0-108c-6-8-11-12-16-12-4 0-6 2-6 6-1 1-1 4-1 10l0 104-25 0 0-112c0-9 1-16 2-20 2-7 8-11 17-11 9 0 19 6 29 17z m122 42l0 57c0 13 0 23-2 28-3 11-10 16-20 16-10 0-19-5-27-16l0 62-25 0 0-189 25 0 0 14c9-11 17-16 27-16 10 0 17 5 20 16 2 5 2 14 2 28z m97 3l0 4-26 0c0-10 0-16-1-18-1-6-5-10-11-10-9 0-13 7-13 20l0 25 51 0 0 29c0 15-3 26-8 33-7 10-17 15-30 15-13 0-23-5-31-15-5-7-8-18-8-33l0-49c0-15 3-26 9-33 7-10 17-15 31-15 13 0 24 5 30 15 4 5 6 10 6 16 1 1 1 7 1 16z m-174 261l0 60c0 13-4 20-12 20-8 0-12-7-12-20l0-60c0-13 4-20 12-20 8 0 12 7 12 20z m206-215c0-44-3-77-8-100-2-11-8-20-16-28-9-7-18-12-29-13-35-4-88-6-159-6-71 0-124 2-159 6-11 1-20 6-29 13-8 8-14 17-16 28-5 22-8 55-8 100 0 45 3 78 8 100 2 12 8 21 16 29 9 7 18 12 30 13 35 4 87 6 158 6 71 0 124-2 159-6 11-1 20-6 29-13 8-8 14-17 16-29 5-21 8-54 8-100z m-285 365l29 0-35-114 0-77-28 0 0 77c-3 14-9 34-18 61-7 19-13 37-18 53l30 0 20-75z m105-95l0-50c0-16-2-27-8-34-7-10-17-14-30-14-13 0-23 4-30 14-5 7-8 19-8 34l0 50c0 15 3 26 8 33 7 10 17 15 30 15 13 0 23-5 30-15 6-7 8-18 8-33z m96 46l0-142-26 0 0 15c-10-12-20-17-29-17-9 0-15 3-17 10-2 5-3 12-3 22l0 112 26 0 0-105c0-6 1-9 1-10 0-4 2-6 6-6 5 0 10 4 16 12l0 109z"/>
<glyph glyph-name="angle-down" unicode="&#49;" d="M399 302c0-3-1-5-3-7l-133-133c-2-2-5-3-7-3-2 0-5 1-7 3l-133 133c-2 2-3 4-3 7 0 2 1 4 3 6l15 15c1 1 4 2 6 2 3 0 5-1 7-2l112-113 112 113c2 1 4 2 7 2 2 0 5-1 6-2l15-15c2-2 3-4 3-6z"/>
<glyph glyph-name="angle-left" unicode="&#50;" d="M344 357c0-3-1-5-3-7l-112-112 112-113c2-1 3-4 3-6 0-3-1-5-3-7l-14-14c-2-2-5-3-7-3-2 0-5 1-7 3l-133 133c-2 2-3 4-3 7 0 2 1 4 3 6l133 133c2 2 5 3 7 3 2 0 5-1 7-3l14-14c2-2 3-4 3-6z"/>
<glyph glyph-name="angle-right" unicode="&#51;" d="M335 238c0-3-1-5-3-7l-133-133c-2-2-5-3-7-3-2 0-5 1-7 3l-14 14c-2 2-3 4-3 7 0 2 1 5 3 6l112 113-112 112c-2 2-3 4-3 7 0 2 1 4 3 6l14 14c2 2 5 3 7 3 2 0 5-1 7-3l133-133c2-2 3-4 3-6z"/>
<glyph glyph-name="angle-up" unicode="&#52;" d="M399 174c0-3-1-5-3-7l-15-14c-1-2-4-3-6-3-3 0-5 1-7 3l-112 112-112-112c-2-2-4-3-7-3-2 0-5 1-6 3l-15 14c-2 2-3 4-3 7 0 2 1 4 3 6l133 133c2 2 5 3 7 3 2 0 5-1 7-3l133-133c2-2 3-4 3-6z"/>
<glyph glyph-name="angle-double-down" unicode="&#53;" d="M399 265c0-2-1-5-3-6l-133-134c-2-1-5-2-7-2-2 0-5 1-7 2l-133 134c-2 1-3 4-3 6 0 3 1 5 3 7l15 14c1 2 4 3 6 3 3 0 5-1 7-3l112-112 112 112c2 2 4 3 7 3 2 0 5-1 6-3l15-14c2-2 3-4 3-7z m0 110c0-3-1-5-3-7l-133-133c-2-2-5-3-7-3-2 0-5 1-7 3l-133 133c-2 2-3 4-3 7 0 2 1 5 3 6l15 15c1 2 4 3 6 3 3 0 5-1 7-3l112-113 112 113c2 2 4 3 7 3 2 0 5-1 6-3l15-15c2-1 3-4 3-6z"/>
<glyph glyph-name="angle-double-left" unicode="&#54;" d="M289 119c0-3-1-5-3-7l-14-14c-2-2-4-3-7-3-2 0-5 1-6 3l-134 133c-1 2-2 4-2 7 0 2 1 4 2 6l134 133c1 2 4 3 6 3 3 0 5-1 7-3l14-14c2-2 3-4 3-6 0-3-1-5-3-7l-112-112 112-113c2-1 3-4 3-6z m110 0c0-3-1-5-3-7l-15-14c-1-2-4-3-6-3-3 0-5 1-7 3l-133 133c-2 2-3 4-3 7 0 2 1 4 3 6l133 133c2 2 4 3 7 3 2 0 5-1 6-3l15-14c2-2 3-4 3-6 0-3-1-5-3-7l-113-112 113-113c2-1 3-4 3-6z"/>
<glyph glyph-name="angle-double-right" unicode="&#55;" d="M280 238c0-3-1-5-3-7l-133-133c-2-2-4-3-7-3-2 0-5 1-6 3l-15 14c-2 2-3 4-3 7 0 2 1 5 3 6l113 113-113 112c-2 2-3 4-3 7 0 2 1 4 3 6l15 14c1 2 4 3 6 3 3 0 5-1 7-3l133-133c2-2 3-4 3-6z m109 0c0-3-1-5-2-7l-134-133c-1-2-4-3-6-3-3 0-5 1-7 3l-14 14c-2 2-3 4-3 7 0 2 1 5 3 6l112 113-112 112c-2 2-3 4-3 7 0 2 1 4 3 6l14 14c2 2 4 3 7 3 2 0 5-1 6-3l134-133c1-2 2-4 2-6z"/>
<glyph glyph-name="angle-double-up" unicode="&#56;" d="M399 137c0-2-1-5-3-6l-15-15c-1-2-4-3-6-3-3 0-5 1-7 3l-112 113-112-113c-2-2-4-3-7-3-2 0-5 1-6 3l-15 15c-2 1-3 4-3 6 0 3 1 5 3 7l133 133c2 2 5 3 7 3 2 0 5-1 7-3l133-133c2-2 3-4 3-7z m0 110c0-3-1-5-3-7l-15-14c-1-2-4-3-6-3-3 0-5 1-7 3l-112 112-112-112c-2-2-4-3-7-3-2 0-5 1-6 3l-15 14c-2 2-3 4-3 7 0 2 1 5 3 6l133 134c2 1 5 2 7 2 2 0 5-1 7-2l133-134c2-1 3-4 3-6z"/>
<glyph glyph-name="eye" unicode="&#118;" d="M511 260c0 0 0 1 0 2 0 0 0 0 0 0 0 1 0 1-1 1-46 89-147 153-254 153-106 0-207-64-254-152 0-1 0-1 0-2 0 0 0 0 0 0-1-1-1-2-1-2 0-2 0-3 0-4 0-1 0-2 0-3 0-1 0-2 1-3 0 0 0 0 0 0 0-1 0-1 0-1 47-89 148-153 254-153 107 0 208 64 254 153 1 0 1 0 1 1 0 0 0 0 0 0 0 1 0 2 0 2 1 2 1 3 1 4 0 1 0 2-1 4z m-255-132c-89 0-177 51-221 128 44 77 132 128 221 128 90 0 178-51 222-128-44-77-132-128-222-128z m0 192c0 0 0 0 0 0-35 0-64-29-64-64 0-4 4-8 8-8 5 0 8 4 8 8 0 26 22 48 48 48l0 0c5 0 8 4 8 8 0 4-3 8-8 8z m0 48c-62 0-112-50-112-112 0-62 50-112 112-112 62 0 112 50 112 112 0 62-50 112-112 112z m0-208c-53 0-96 43-96 96 0 53 43 96 96 96 53 0 96-43 96-96 0-53-43-96-96-96z"/>
<glyph glyph-name="world" unicode="&#87;" d="M248 512c-137 0-248-111-248-248 0-137 111-248 248-248 137 0 248 111 248 248 0 137-111 248-248 248z m216-240l-96 0c-1 35-8 69-19 100 22 9 42 21 60 35 32-36 53-83 55-135z m-225-224c-26 23-49 51-65 85 21 6 43 10 66 11l0-96c0 0-1 0-1 0z m18 432c30-26 55-59 71-98-23-8-47-13-72-14l0 112c0 0 1 0 1 0z m26-3c45-8 84-28 115-58-17-13-35-24-55-32-14 35-35 65-60 90z m-43 3l0-112c-25 1-49 6-72 14 16 39 41 72 71 98 0 0 1 0 1 0z m-87-93c-20 8-38 19-55 32 31 30 70 50 115 58-25-25-46-55-60-90z m9-20c24-9 51-14 78-15l0-80-96 0c1 34 7 66 18 95z m78-111l0-96c-25-1-50-5-73-13-13 33-22 70-23 109z m-27-205c-40 7-76 24-105 49 16 11 33 20 51 27 14-29 32-54 54-76z m43-3l0 96c23-1 45-5 66-11-16-34-39-62-65-85 0 0-1 0-1 0z m81 79c18-7 35-16 51-27-29-25-65-42-105-49 22 22 40 47 54 76z m-8 20c-23 8-48 12-73 13l0 96 96 0c-1-39-10-76-23-109z m-73 125l0 80c27 1 54 6 78 15 11-29 17-62 18-95l-96 0z m-169 135c18-14 38-26 60-35-11-31-18-65-19-100l-96 0c2 52 23 99 55 135z m-55-151l96 0c1-41 10-79 24-114-20-8-39-19-56-31-38 37-62 88-64 145z m368-145c-17 12-36 23-56 31 14 35 23 73 24 114l96 0c-2-57-26-108-64-145z"/>
<glyph glyph-name="menu" unicode="&#66;" d="M475 128l0-37c0-5-1-9-5-12-4-4-8-6-13-6l-402 0c-5 0-9 2-13 6-4 3-5 7-5 12l0 37c0 5 1 9 5 13 4 3 8 5 13 5l402 0c5 0 9-2 13-5 4-4 5-8 5-13z m0 146l0-36c0-5-1-10-5-13-4-4-8-6-13-6l-402 0c-5 0-9 2-13 6-4 3-5 8-5 13l0 36c0 5 1 10 5 13 4 4 8 6 13 6l402 0c5 0 9-2 13-6 4-3 5-8 5-13z m0 147l0-37c0-5-1-9-5-13-4-3-8-5-13-5l-402 0c-5 0-9 2-13 5-4 4-5 8-5 13l0 37c0 5 1 9 5 12 4 4 8 6 13 6l402 0c5 0 9-2 13-6 4-3 5-7 5-12z"/>
<glyph glyph-name="news" unicode="&#78;" d="M464 512l-352 0c-27 0-48-21-48-48l0-32-16 0c-27 0-48-21-48-48l0-320c0-35 29-64 64-64l384 0c35 0 64 29 64 64l0 400c0 27-22 48-48 48z m16-448c0-18-14-32-32-32l-384 0c-18 0-32 14-32 32l0 320c0 9 7 16 16 16l16 0 0-320c0-9 7-16 16-16 9 0 16 7 16 16l0 384c0 9 7 16 16 16l352 0c9 0 16-7 16-16z m-168 240l128 0c4 0 8 4 8 8 0 4-4 8-8 8l-128 0c-4 0-8-4-8-8 0-4 4-8 8-8z m0 48l128 0c4 0 8 4 8 8 0 4-4 8-8 8l-128 0c-4 0-8-4-8-8 0-4 4-8 8-8z m0 48l128 0c4 0 8 4 8 8 0 4-4 8-8 8l-128 0c-4 0-8-4-8-8 0-4 4-8 8-8z m-48-320l-128 0c-4 0-8-4-8-8 0-4 4-8 8-8l128 0c4 0 8 4 8 8 0 4-4 8-8 8z m0 48l-128 0c-4 0-8-4-8-8 0-4 4-8 8-8l128 0c4 0 8 4 8 8 0 4-4 8-8 8z m0 48l-128 0c-4 0-8-4-8-8 0-4 4-8 8-8l128 0c4 0 8 4 8 8 0 4-4 8-8 8z m176-96l-128 0c-4 0-8-4-8-8 0-4 4-8 8-8l128 0c4 0 8 4 8 8 0 4-4 8-8 8z m0 48l-128 0c-4 0-8-4-8-8 0-4 4-8 8-8l128 0c4 0 8 4 8 8 0 4-4 8-8 8z m0 48l-128 0c-4 0-8-4-8-8 0-4 4-8 8-8l128 0c4 0 8 4 8 8 0 4-4 8-8 8z m0 96l-304 0c-4 0-8-4-8-8 0-4 4-8 8-8l304 0c4 0 8 4 8 8 0 4-4 8-8 8z m0-48l-304 0c-4 0-8-4-8-8 0-4 4-8 8-8l304 0c4 0 8 4 8 8 0 4-4 8-8 8z m-296 80l112 0c9 0 16 7 16 16l0 112c0 9-7 16-16 16l-112 0c-9 0-16-7-16-16l0-112c0-9 7-16 16-16z m16 112l80 0 0-80-80 0z"/>
<glyph glyph-name="whatsapp" unicode="&#119;" d="M318 234c2 0 12-4 28-13 16-8 24-13 25-15 1-1 1-2 1-4 0-7-2-14-5-22-3-7-10-14-20-19-11-5-20-7-29-7-11 0-29 6-55 17-18 9-34 20-48 34-14 14-28 32-42 53-14 20-21 39-21 55l0 3c1 17 8 32 21 45 5 4 10 6 15 6 1 0 3 0 5 0 3-1 5-1 6-1 3 0 6 0 7-2 2-1 3-3 5-7 1-4 5-13 9-26 5-13 7-20 7-21 0-4-3-9-9-16-7-7-10-12-10-14 0-1 0-2 1-4 7-14 16-27 29-39 11-10 25-20 43-29 3-1 5-2 7-2 3 0 8 5 15 14 8 9 13 14 15 14z m-58-152c24 0 47 5 70 15 22 9 41 22 57 38 16 16 29 35 38 57 10 22 14 46 14 70 0 24-4 47-14 69-9 22-22 42-38 58-16 16-35 28-57 38-23 9-46 14-70 14-24 0-47-5-70-14-22-10-41-22-57-38-16-16-29-36-38-58-10-22-14-45-14-69 0-39 11-74 34-105l-23-67 69 22c31-20 63-30 99-30z m0 395c29 0 57-6 84-17 26-11 49-27 68-46 20-19 35-42 46-69 12-26 17-54 17-83 0-29-5-57-17-84-11-26-26-49-46-69-19-19-42-34-68-46-27-11-55-17-84-17-37 0-72 9-104 27l-119-38 38 116c-20 33-30 71-30 111 0 29 5 57 17 83 11 27 26 50 46 69 19 19 42 35 68 46 27 11 55 17 84 17z"/>
<glyph glyph-name="star-full" unicode="&#83;" d="M494 327c0-4-3-9-8-14l-103-101 24-143c0-1 0-3 0-5 0-4-1-8-3-10-2-3-4-5-8-5-4 0-8 2-12 4l-128 67-128-67c-4-2-8-4-12-4-4 0-7 2-9 5-2 2-3 6-3 10 0 1 0 3 1 5l24 143-104 101c-4 6-7 10-7 14 0 7 6 12 16 13l144 21 64 130c4 8 8 12 14 12 6 0 10-4 14-12l64-130 144-21c10-1 16-6 16-13z"/>
<glyph glyph-name="star-empty" unicode="&#115;" d="M343 225l88 85-121 18-54 109-54-109-121-18 88-85-21-120 108 57 108-57z m151 102c0-4-3-9-8-14l-103-101 24-143c0-1 0-3 0-5 0-10-3-15-11-15-4 0-8 2-12 4l-128 67-128-67c-4-2-8-4-12-4-4 0-7 2-9 5-2 2-3 6-3 10 0 1 0 3 1 5l24 143-104 101c-4 6-7 10-7 14 0 7 6 12 16 13l144 21 64 130c4 8 8 12 14 12 6 0 10-4 14-12l64-130 144-21c10-1 16-6 16-13z"/>
<glyph glyph-name="fax" unicode="&#70;" d="M82 402c13 0 24-4 33-13 9-9 13-20 13-32l0-311c0-13-4-24-13-33-9-9-20-13-33-13l-36 0c-13 0-24 4-33 13-9 9-13 20-13 33l0 311c0 12 4 23 13 32 9 9 20 13 33 13z m393-46c11-7 20-16 27-27 7-11 10-23 10-36l0-220c0-20-7-37-21-52-15-14-32-21-52-21l-247 0c-13 0-23 4-32 13-9 9-14 20-14 33l0 439c0 7 3 14 8 19 6 5 12 8 20 8l192 0c7 0 16-2 25-6 9-4 16-8 22-13l43-44c5-5 10-12 14-22 4-9 5-17 5-25z m-210-283l0 37c0 2-1 5-2 6-2 2-4 3-7 3l-37 0c-2 0-4-1-6-3-2-1-3-4-3-6l0-37c0-3 1-5 3-6 2-2 4-3 6-3l37 0c3 0 5 1 7 3 1 1 2 3 2 6z m0 73l0 37c0 3-1 5-2 6-2 2-4 3-7 3l-37 0c-2 0-4-1-6-3-2-1-3-3-3-6l0-37c0-2 1-5 3-6 2-2 4-3 6-3l37 0c3 0 5 1 7 3 1 1 2 4 2 6z m0 73l0 37c0 3-1 5-2 7-2 1-4 2-7 2l-37 0c-2 0-4-1-6-2-2-2-3-4-3-7l0-37c0-2 1-4 3-6 2-2 4-3 6-3l37 0c3 0 5 1 7 3 1 2 2 4 2 6z m73-146l0 37c0 2-1 5-2 6-2 2-4 3-7 3l-36 0c-3 0-5-1-7-3-2-1-3-4-3-6l0-37c0-3 1-5 3-6 2-2 4-3 7-3l36 0c3 0 5 1 7 3 1 1 2 3 2 6z m0 73l0 37c0 3-1 5-2 6-2 2-4 3-7 3l-36 0c-3 0-5-1-7-3-2-1-3-3-3-6l0-37c0-2 1-5 3-6 2-2 4-3 7-3l36 0c3 0 5 1 7 3 1 1 2 4 2 6z m0 73l0 37c0 3-1 5-2 7-2 1-4 2-7 2l-36 0c-3 0-5-1-7-2-2-2-3-4-3-7l0-37c0-2 1-4 3-6 2-2 4-3 7-3l36 0c3 0 5 1 7 3 1 2 2 4 2 6z m73-146l0 37c0 2 0 5-2 6-2 2-4 3-7 3l-36 0c-3 0-5-1-7-3-2-1-2-4-2-6l0-37c0-3 0-5 2-6 2-2 4-3 7-3l36 0c3 0 5 1 7 3 2 1 2 3 2 6z m0 73l0 37c0 3 0 5-2 6-2 2-4 3-7 3l-36 0c-3 0-5-1-7-3-2-1-2-3-2-6l0-37c0-2 0-5 2-6 2-2 4-3 7-3l36 0c3 0 5 1 7 3 2 1 2 4 2 6z m0 73l0 37c0 3 0 5-2 7-2 1-4 2-7 2l-36 0c-3 0-5-1-7-2-2-2-2-4-2-7l0-37c0-2 0-4 2-6 2-2 4-3 7-3l36 0c3 0 5 1 7 3 2 2 2 4 2 6z m28 110l0 73-46 0c-7 0-14 3-19 8-6 6-8 12-8 20l0 45-183 0 0-146z"/>
<glyph glyph-name="file-excel" unicode="&#120;" d="M456 403c5-5 10-12 14-21 4-9 5-18 5-25l0-330c0-7-2-14-8-19-5-5-11-8-19-8l-384 0c-8 0-14 3-19 8-6 5-8 12-8 19l0 458c0 7 2 14 8 19 5 5 11 8 19 8l256 0c8 0 16-2 25-6 9-4 17-8 22-13z m-127 70l0-107 108 0c-2 5-4 9-7 11l-89 90c-2 2-6 4-12 6z m110-436l0 292-119 0c-8 0-14 3-19 8-6 5-8 12-8 20l0 118-220 0 0-438z m-280 66l0-30 80 0 0 30-21 0 29 46c1 2 2 3 3 5 1 2 2 3 2 4 1 1 1 1 1 1l1 0c0-1 1-2 1-3 1 0 1-1 2-2 0-1 1-1 1-2 1-1 2-2 2-3l31-46-22 0 0-30 83 0 0 30-19 0-55 78 56 81 19 0 0 31-80 0 0-31 21 0-29-45c-1-2-2-3-3-5-1-2-2-3-3-4l0-1-1 0c0 1 0 2-1 3-1 2-3 4-5 7l-30 45 21 0 0 31-82 0 0-31 19 0 54-78-55-81z"/>
<glyph glyph-name="file-pdf" unicode="&#112;" d="M456 403c5-5 10-12 14-21 4-9 5-18 5-25l0-330c0-7-2-14-8-19-5-5-11-8-19-8l-384 0c-8 0-14 3-19 8-6 5-8 12-8 19l0 458c0 7 2 14 8 19 5 5 11 8 19 8l256 0c8 0 16-2 25-6 9-4 17-8 22-13z m-127 70l0-107 108 0c-2 5-4 9-7 11l-89 90c-2 2-6 4-12 6z m110-436l0 292-119 0c-8 0-14 3-19 8-6 5-8 12-8 20l0 118-220 0 0-438z m-147 169c6-5 14-10 24-16 11 1 22 2 33 2 28 0 45-5 51-14 3-4 3-9 1-15 0 0-1 0-1 0l0-1 0 0c-1-8-8-11-21-11-9 0-20 2-32 6-13 3-26 8-38 15-42-5-79-13-112-24-29-50-52-75-69-75-3 0-5 1-8 2l-7 4c0 0 0 0-1 1-2 2-3 5-2 10 2 8 7 17 16 26 9 10 22 19 38 28 2 2 5 1 6-2 1 0 1 0 1-1 10 16 20 35 30 56 13 26 23 51 30 75-4 16-7 31-9 46-1 15 0 27 2 36 2 8 6 12 12 12l7 0c4 0 7-2 10-5 3-4 4-10 2-19 0-1-1-2-1-2 0-1 0-2 0-3l0-8c0-24-1-42-4-55 11-31 25-54 42-68z m-165-117c10 4 23 19 40 45-10-8-18-16-25-24-7-9-12-16-15-21z m114 262c-3-8-3-20 0-37 0 1 0 5 2 12 0 1 0 5 2 13 0 0 0 1 1 2 0 0-1 0-1 0 0 1 0 1 0 1 0 0 0 0 0 0 0 4-1 8-4 11 0-1 0-1 0-1z m-35-188c25 10 52 18 81 23-1 0-2 1-4 2-2 2-3 3-4 4-15 13-27 30-37 51-5-17-13-36-23-57-6-10-10-18-13-23z m184 4c-4 5-18 7-40 7 15-5 27-8 36-8 2 0 4 0 5 0 0 0 0 1-1 1z"/>
<glyph glyph-name="print" unicode="&#97;" d="M128 73l256 0 0 73-256 0z m0 183l256 0 0 110-46 0c-7 0-14 2-19 8-5 5-8 12-8 19l0 46-183 0z m329-18c0 5-2 9-5 13-4 3-8 5-13 5-5 0-9-2-13-5-4-4-5-8-5-13 0-5 1-10 5-13 4-4 8-6 13-6 5 0 9 2 13 6 3 3 5 8 5 13z m37 0l0-119c0-3-1-5-3-7-2-1-4-2-6-2l-64 0 0-46c0-8-3-14-8-19-6-6-12-8-20-8l-274 0c-8 0-14 2-20 8-5 5-8 11-8 19l0 46-64 0c-2 0-4 1-6 2-2 2-3 4-3 7l0 119c0 15 6 28 16 38 11 11 24 17 39 17l18 0 0 155c0 8 3 14 8 19 6 6 12 8 20 8l192 0c7 0 16-1 25-5 9-4 16-9 22-14l43-43c5-6 10-13 14-22 4-9 6-18 6-25l0-73 18 0c15 0 28-6 39-17 10-10 16-23 16-38z"/>
<glyph glyph-name="comments-o" unicode="&#105;" d="M201 402c-29 0-56-5-82-15-25-9-45-23-60-40-15-17-22-35-22-54 0-16 5-31 15-46 10-14 24-27 42-37l28-16-10-24c6 4 12 7 18 11l12 9 15-3c15-3 30-4 44-4 29 0 57 5 82 15 25 10 45 23 60 40 15 17 23 35 23 55 0 19-8 37-23 54-15 17-35 31-60 40-25 10-53 15-82 15z m0 37c37 0 70-7 101-20 31-13 56-31 73-53 18-22 27-47 27-73 0-27-9-51-27-74-17-22-42-40-73-53-31-13-64-20-101-20-16 0-33 2-50 5-24-17-50-29-80-37-6-1-15-3-24-4l-1 0c-2 0-4 0-6 2-2 2-3 4-3 6 0 1 0 1 0 2 0 1 0 1-1 2 0 0 1 1 1 1l1 2 1 1 1 2 1 1 1 2c1 1 3 3 7 7 3 3 6 6 7 8 2 2 4 5 7 8 2 4 5 8 7 11 2 4 4 8 6 13-24 14-42 31-56 51-14 20-20 41-20 64 0 26 9 51 27 73 17 22 42 40 73 53 31 13 64 20 101 20z m235-334c2-5 4-9 6-13 2-4 4-7 7-11 3-3 5-6 6-8 2-2 4-5 8-8 3-4 5-6 6-8 1 0 1 0 2-1 0-1 1-1 1-1 0-1 1-1 1-2 0 0 1-1 1-1l1-2 0-1 0-2 0-2c0-3-2-5-4-6-1-2-4-3-6-2-9 1-18 2-24 4-30 8-56 20-80 37-17-3-34-5-50-5-52 0-97 13-135 38 11-1 19-1 25-1 31 0 60 4 88 13 29 8 54 20 76 36 24 18 42 38 55 61 12 23 19 47 19 73 0 14-2 29-7 43 25-14 44-30 59-51 14-20 21-42 21-66 0-22-7-44-20-64-14-20-32-36-56-50z"/>
<glyph glyph-name="wrench" unicode="&#107;" d="M462 397l-57-57-55 10-10 55 57 57c-13 13-31 19-44 18-14-1-43-8-65-32-21-23-44-65-24-113 2-5 5-13-3-21-8-8-215-203-215-203-19-16-18-47 0-65 18-18 49-19 66 0 0 0 193 206 202 215 9 9 16 6 21 3 36-18 87-2 113 24 26 26 31 52 32 65 1 13-4 30-18 44z m-371-328c-6-6-16-6-22 0-7 6-7 16 0 22 6 7 16 7 22 0 7-6 7-16 0-22z"/>
<glyph glyph-name="administration" unicode="&#98;" d="M154 221l27 0 0-15-27 0z m0-24l27 0 0-16-27 0z m143 52l-83 0 0-3-5 0 0-78 5 0 0 71 81 0 0-71 6 0 0 79-4 0z m-42 9c7 0 12 5 12 11 0 6-5 11-12 11-6 0-11-5-11-11 0-6 5-11 11-11z m-141-37l27 0 0-15-27 0z m0-24l27 0 0-16-27 0z m253 26l28 0 0-16-28 0z m69 288l-356 0c-20 0-37-17-37-38l0-355c0-21 17-38 37-38l132 0 46-80 47 80 131 0c21 0 38 17 38 38l0 355c0 21-17 38-38 38z m-183-139l3 0 0-1c4-1 14-5 19 1 7 8 19 0 19 0l0-21c0 0-10 8-19 0-7-6-15-3-19-1l0-24-1 0 83-63 0-18-85 63-75-63 0 18 77 63-2 0z m164-229l-317 0 0 25 4 0 0 65 9 52 84 0-25-21 0-32 12 10 0-4 6 0 0-70 6 0 0 78-6 0 0 9 7 0 57 45 60-44 8 0 0-9-6 0 0-79 6 0 0 72 5 0 0 6 17-13 0 31-27 21 82 0 9-52 0-65 9 0 0-25z m-50 55l28 0 0-16-28 0z m-40 25l28 0 0-16-28 0z m0-25l28 0 0-16-28 0z"/>
<glyph glyph-name="playground" unicode="&#85;" d="M473 473c0 21-17 38-38 38l-356 0c-21 0-37-17-37-38l0-355c0-21 16-38 37-38l132 0 46-80 46 80 132 0c21 0 38 17 38 38z m-118-176l25 6-8 29c-2 5 1 9 6 11 4 1 9-2 10-6l10-37c1-2 1-5 0-7-2-2-3-3-5-4l-33-9c-1 0-2 0-3 0-3 0-7 2-8 6-1 5 2 9 6 11z m-257-32c4 1 9-2 10-6l8-29 25 7c4 1 9-2 10-6 1-5-1-9-6-11l-32-9c-1 0-2 0-3 0-1 0-3 0-4 1-2 1-3 3-4 5l-10 37c-2 5 1 9 6 11z m257-141l-198 0c-7 0-12 5-12 11 0 7 5 12 12 12l198 0c6 0 11-5 11-12 0-6-5-11-11-11z m59 132l-133-38 11-60-72 0 8 46-117-33c-1 0-2 0-3 0-5 0-10 3-11 8-2 6 2 12 8 14l303 85c6 1 13-2 14-8 2-6-2-13-8-14z"/>
<glyph glyph-name="art" unicode="&#106;" d="M96 215l0-3 3 1 81 99-12 9z m124 163c3-2 6-3 9-2 4 1 7 2 9 5 1 2 2 14 3 27l-15-6c-3-2-7-4-9-6-4-5-2-13 3-18z m74-79c4 0 7 6 6 12-1 6-5 10-9 10-5-1-7-6-7-12 1-7 6-11 10-10z m179 174c0 21-17 38-38 38l-356 0c-21 0-37-17-37-38l0-355c0-21 16-38 37-38l132 0 46-80 46 80 132 0c21 0 38 17 38 38z m-368-270l-13-4c-1-1-3-1-5 0-1 1-2 3-2 5l0 13c0 1 1 2 1 3l76 112c1 1 2 2 4 2 0 0 0 0 0 0 0 0 0 0 0 0 0 0 0 0 0 0 0 2 0 4 1 5l35 37c1 1 2 2 3 2 1 0 1 0 1 0-4 8-3 17 2 25 4 5 12 8 13 9l25 9c0 0 0 1 1 1 1 0 3 0 4-1 2-1 2-3 2-5-1-24-4-38-6-42-4-5-10-8-16-9-3 0-5 0-8 0 1-1 0-3 0-4l-26-44c-1-2-2-3-4-3 0 0 0 0 0 0 0 0 0 0 0 0 0-2 0-3-1-4l-85-105c-1-1-1-2-2-2z m276-23c0 0 0-1 0-1-18-25-45-42-75-46-62-9-119 33-128 95-9 61 33 118 94 128 1 0 1 0 1 0 1 0 2 0 3 0 2 1 5 1 8 1 24-1 43-18 47-41 1-12-1-24-8-34 0-1 0-1 0-1-1 0-1 0-1 0 0-1 0-1-1-1 0-1 0-1 0-1-3-4-4-8-4-12 2-8 9-14 17-13 26 4 51-14 55-40 2-12-1-24-8-34z m-45 63c-14-2-28 8-30 22-1 7 1 14 5 20 0 0 1 0 1 1l1 1c0 0 0 0 0 1 0 0 0 0 0 0 6 8 8 17 7 26-3 18-18 31-36 32-3 0-6-1-8-1 0 0-1 0-1 0-1 0-1 0-2 0-54-9-92-60-84-115 8-56 60-94 115-86 27 4 51 19 67 41 0 0 0 0 0 1 6 7 8 17 7 26-3 20-22 34-42 31z m-108 54c10 2 20-6 21-16 2-11-5-20-16-22-10-1-20 6-22 16-1 11 6 20 17 22z m-23-73c-1 10 6 20 17 22 10 1 20-6 21-16 2-11-5-21-16-22-10-2-20 6-22 16z m43-61c-11-2-21 5-22 16-2 10 6 20 16 22 10 1 20-6 22-17 1-10-6-20-16-21z m41 169c10 1 20-7 22-19 2-13-5-24-15-25-11-2-21 7-23 19-2 12 6 23 16 25z m9-176c-11-1-21 6-22 16-2 11 5 21 16 22 10 2 20-5 22-16 1-10-6-20-16-22z m46 21c-11-2-21 5-22 16-2 10 5 20 16 22 10 1 20-6 22-16 1-11-6-21-16-22z"/>
<glyph glyph-name="association" unicode="&#108;" d="M333 264c0 1 0 2 0 3 0 14-4 26-10 37l17 9c0 0 1 1 3 2-1 0-1 0-1 0-11 4-23 8-32 19-1 2-2 4-3 6-12 3-21 12-28 19-1 0-1 0-1 0 0-1-1-3-1-3l0-16c-6 2-13 3-20 3-7 0-14-1-21-3l0 16c0 0 0 2 0 3 0 0-1 0-1 0-7-7-16-16-29-19 0-2-1-3-2-5-9-12-22-16-32-19 0 0 0-1 0-1 1-1 2-2 2-2l17-8c-6-11-10-24-10-38 0-1 0-2 0-3l-25 13c0 0-2 0-3 1 0-1 0-1 0-1 4-10 8-23 4-37 0 0 0 0 0 0 0-1 1-1 2-2 11-9 14-22 16-33 0 0 0 0 0-1 1 1 3 3 3 3l13 22c8-12 18-22 30-29l-9-15c0 0 0-1-1-3 1 0 1 0 1 0 11 3 24 6 37 1 4-2 6-4 8-6 2 2 5 4 8 5 14 5 27 2 37 0 0 0 1 0 1 0-1 1-1 3-1 3l-9 15c11 6 21 15 28 26l2 2 14-22c0 0 1-1 2-2 0 0 0 0 0 0 3 11 6 24 16 34 1 0 2 1 3 1 0 0 0 0 0 1-5 13 0 26 3 36 0 1 0 1 1 1-2 0-4-1-4-1z m102 247l-356 0c-21 0-37-17-37-38l0-355c0-21 16-38 37-38l132 0 46-80 46 80 132 0c21 0 37 17 37 38l0 355c0 21-16 38-37 38z m-177-74c11 0 20-10 20-21 0-11-9-21-20-21-12 0-21 10-21 21 0 11 9 21 21 21z m-155-133c-11 5-15 17-10 27 5 11 18 15 28 10 10-5 14-18 9-28-5-10-17-14-27-9z m78-169c-6-10-19-13-29-7-9 6-12 19-6 28 5 10 18 13 28 7 10-6 13-19 7-28z m181-8c-10-6-23-3-28 7-6 10-3 23 6 29 10 5 23 2 29-7 6-10 3-23-7-29z m23 169c-1-3-1-5-2-8-1-6-3-12-5-17-4-13-7-22-1-32 3-4 2-10-3-12 0 0-2-1-4-1-8-5-10-13-13-26-2-5-3-11-5-17-1-2-2-5-3-7-1-4-3-8-6-11l-7-4c-4-1-8-2-12-1-3 0-6 1-8 1-6 0-12 2-18 3-13 4-22 5-31-2-3-2-7-2-10 0-3-1-7-1-9 1-10 7-18 5-32 2-6-2-12-3-18-4-2 0-5 0-7 0-4-1-9-1-12 0l-7 5c-3 3-5 6-6 10-2 2-2 5-3 7-3 6-4 12-5 18-3 12-6 20-14 26-2-1-3 0-4 0-4 3-6 9-3 13 6 10 3 18-1 31-2 6-4 12-5 18-1 2-1 5-1 7-1 4-2 8-1 12l4 8c3 3 6 5 10 7 2 1 4 2 7 3 5 3 11 5 17 7 9 3 16 5 20 10-1 2-2 5-2 6 1 5 5 8 10 8 12-1 18 5 28 15 4 4 8 8 13 12 2 1 4 3 7 5 2 2 6 4 10 5l9 0c3-1 7-3 10-5 2-2 4-4 6-5 5-4 10-8 14-12 10-10 16-16 27-15 6 0 10-3 10-8 0-1 0-4-2-6 5-5 12-8 21-11 6-2 11-4 17-6 2-1 5-3 7-4 4-1 7-4 10-7l3-7c1-4 1-8 0-12z m27 7c-11-5-23-1-28 10-5 10-1 22 9 27 10 5 23 1 28-9 5-10 1-23-9-28z"/>
<glyph glyph-name="library" unicode="&#113;" d="M156 198c0 9-7 16-16 16-9 0-16-7-16-16 0-9 7-16 16-16 9 0 16 7 16 16z m227 4c-2 8-9 14-16 13-7-1-11-10-9-18 2-9 9-15 16-14 7 2 11 10 9 19z m52 309l-356 0c-21 0-37-17-37-38l0-355c0-21 16-38 37-38l132 0 46-80 46 80 132 0c21 0 37 17 37 38l0 355c0 21-16 38-37 38z m-269-376l-51 0 0 21 51 0z m0 31l-51 0 0 175 51 0z m0 185l-51 0 0 26 51 0z m78-216l-68 0 0 24c6 2 18 7 36 7 20 0 29-5 32-7z m0 36c-6 2-16 5-32 5-16 0-28-3-36-6l0 126c8-3 20-6 36-6 16 0 26 3 32 5z m0 136c-3-2-12-7-32-7-18 0-30 5-36 7l0 19 68 0z m66-172l-51 0 0 21 51 0z m0 31l-51 0 0 15 51 0z m0 25l-51 0 0 124 51 0z m0 135l-51 0 0 15 51 0z m0 25l-51 0 0 26 51 0z m7 20l36 7 5-25-36-7z m8-36l35 8 35-172-35-7z m41-201l-4 20 35 7 4-20z"/>
<glyph glyph-name="cpas" unicode="&#114;" d="M308 186c-2 6-3 10-3 13-1-3-2-7-3-12-1-6-4-17-8-33l22 0-5 17c-1 4-2 9-3 15z m127 325l-356 0c-21 0-37-17-37-38l0-355c0-21 16-38 37-38l132 0 46-80 46 80 132 0c21 0 37 17 37 38l0 355c0 21-16 38-37 38z m-201-186l29 0 16-56 0 0 16 56 28 0 0-78-19 0 0 34c0 2 0 4 0 6 0 2 0 8 1 16l-1 0-15-56-20 0-16 56-1 0c1-9 2-17 2-22l0-34-20 0z m-149-9c7 6 16 10 28 10 12 0 22-4 28-10 6-7 10-17 10-30 0-13-4-23-10-30-6-7-16-10-28-10-12 0-21 3-28 10-6 7-10 17-10 30 0 13 4 23 10 30z m37-184c5 0 9 1 14 2 4 2 8 3 12 5l0-24c-8-4-18-6-29-6-16 0-28 5-36 14-9 9-13 23-13 40 0 11 2 20 6 29 4 8 10 14 18 19 7 4 17 6 27 6 11 0 22-2 32-7l-8-22c-4 1-8 3-12 4-4 1-8 2-12 2-7 0-12-3-16-8-4-6-6-13-6-23 0-20 8-31 23-31z m44 175c3 6 8 11 13 14 6 3 13 5 20 5 9 0 17-2 24-6l-6-16c-3 1-6 2-9 3-3 1-6 2-9 2-5 0-9-3-12-7-2-4-4-9-4-17 0-14 6-22 17-22 4 0 7 1 10 2 3 1 7 2 10 3l0-18c-7-3-14-4-22-4-12 0-21 3-27 10-6 7-9 17-9 30 0 8 1 15 4 21z m69-152c-7-6-16-10-29-10l-8 0 0-34-29 0 0 105 37 0c13 0 23-3 30-9 6-6 10-14 10-25 0-11-4-21-11-27z m92-44l-5 19-34 0-6-19-31 0 34 105 38 0 35-105z m70 71c2-1 8-4 17-9 9-4 15-8 19-13 3-4 5-10 5-17 0-7-1-13-5-18-3-5-8-9-14-12-6-2-13-4-22-4-7 0-13 1-18 2-4 1-9 2-14 5l0 25c5-3 11-5 17-6 5-2 11-3 16-3 4 0 7 1 9 2 2 2 3 4 3 6 0 1-1 3-1 4-1 1-2 2-4 3-2 1-7 3-14 7-7 3-12 6-16 9-3 3-6 6-7 10-2 4-3 8-3 13 0 10 4 18 11 23 7 5 17 8 29 8 11 0 22-2 33-7l-8-22c-10 4-19 6-26 6-4 0-6 0-8-2-2-1-3-2-3-4 1-2 2-4 4-6z m26 65l-24 0-8 34c0 1-1 4-1 8-1 4-2 8-2 11 0-3-1-5-1-9-1-3-2-7-2-9-1-3-3-15-8-35l-25 0-19 78 20 0 9-39c2-9 3-16 4-21 0 4 1 9 2 15 1 6 2 11 3 15l7 30 20 0 6-30c1-4 3-10 4-16 1-6 2-11 2-14 1 4 2 11 4 21l9 39 20 0z m-218-54l-7 0 0-24 5 0c4 0 8 1 10 3 3 3 4 6 4 10 0 7-4 11-12 11z m-92 71c5 0 9 1 12 5 2 4 4 9 4 17 0 8-2 13-4 17-3 4-7 6-12 6-10 0-16-8-16-23 0-15 6-22 16-22z"/>
<glyph glyph-name="nursery" unicode="&#122;" d="M261 201c-13 0-24-11-24-24 0-13 11-23 24-23 13 0 24 10 24 23 0 13-11 24-24 24z m18-25c-6-1-12-2-18-2-6 0-12 1-18 2 0 1 0 1 0 1 0 8 5 15 11 17 2 0 2 0 1 0 2 1 4 2 6 2 2 0 4-1 6-1 7-3 12-10 12-18 0 0 0 0 0-1z m156 336l-356 0c-21 0-38-17-38-38l0-356c0-21 17-38 38-38l132 0 46-80 47 80 131 0c21 0 38 17 38 38l0 356c0 21-17 38-38 38z m-174-381c-25 0-46 21-46 46 0 26 21 46 46 46 25 0 46-20 46-46 0-25-21-46-46-46z m0 129c33 0 59-19 59-43 0-9-3-17-10-24-4 13-13 23-25 30-1 13-12 23-25 23-14 0-25-11-26-25-10-6-18-16-22-28-7 7-10 15-10 24 0 24 26 43 59 43z m-59 28c0 9 7 16 16 16 9 0 17-7 17-16 0-9-8-17-17-17-9 0-16 8-16 17z m77 0c0 9 8 16 17 16 9 0 16-7 16-16 0-9-7-17-16-17-9 0-17 8-17 17z m2-63c-6 2-13 4-20 4-8 0-15-2-21-5 3 8 11 14 20 14 9 0 17-5 21-13z m18-82c7 8 12 17 13 28 42 21 71 64 71 113 0 47-26 88-64 109-4-15-22-58-97-57-3 0-5 2-5 4-1 2-1 5 1 6 6 5 9 12 2 21-9 10-16 22-14 31-43-20-74-63-74-114 0-52 33-97 79-116 1-11 7-20 14-28-65 15-115 74-115 144 0 81 66 148 148 148 81 0 147-67 147-148 0-67-45-123-106-141z"/>
<glyph glyph-name="religion" unicode="&#69;" d="M435 511l-356 0c-21 0-37-17-37-38l0-355c0-21 16-38 37-38l132 0 46-80 46 80 132 0c21 0 37 17 37 38l0 355c0 21-16 38-37 38z m-179-231l-15-89c-1-8-6-14-12-17l-2-1-92-48c-13-7-30-2-38 12-7 13-2 30 12 38l50 26 0 80c0 3 0 6 1 8l54 107c4 7 13 10 21 6 7-3 10-11 7-18l-38-107 1-21 12 34c4 10 16 16 26 12 9-3 15-13 13-22z m173-143c-8-14-24-19-38-12l-92 48-2 1c-6 4-11 10-12 17l-15 89c-2 9 4 19 13 22 11 4 22-2 26-12l12-34 2 21-39 107c-3 7 1 15 8 18 7 4 16 1 20-6l54-107c1-3 2-5 2-8l0-80 49-26c14-7 19-24 12-38z"/>
<glyph glyph-name="school" unicode="&#71;" d="M164 339l14-14 28 28-14 14z m174-110l0-23-17 3 4-16-24 1 5-5 41-18 11 11-16 43z m97 282l-356 0c-21 0-37-17-37-38l0-355c0-21 16-38 37-38l132 0 46-80 46 80 132 0c21 0 37 17 37 38l0 355c0 21-16 38-37 38z m-263-391l-57 57 92 90 10-10-82-80 37-38 10 10-14 13 8 7 13-13 8 8-20 19 7 7 19-19 11 10-13 14 7 7 13-14 8 8-19 20 7 7 19-20 10 10-13 13 7 7 23-23z m130 64l-117 117 0 0-38 38 45 45 38-38 0 0 117-118 27-75z m20 83l-21 22 7 7 11-12 8 8-18 18 8 7 17-18 11 10-12 12 7 7 12-12 8 8-18 18 7 7 18-18 12 12-37 37-68-66-10 10 78 76 57-57z"/>
<glyph glyph-name="survey" unicode="&#72;" d="M238 356c-13-7-12-34 1-61 14-27 36-43 49-36 13 7 13 34-1 61-14 27-36 43-49 36z m31-61l-10-5c-3 3-5 7-8 11-2 4-3 9-5 13l11 6c7 3 15 1 18-6 4-7 1-15-6-19z m204 178c0 21-17 38-38 38l-356 0c-21 0-37-17-37-38l0-355c0-21 16-38 37-38l132 0 46-80 46 80 132 0c21 0 38 17 38 38z m-173-238c-29 9-57 6-77 1 1-6-1-12-6-15l-3-1 16-54c6 4 14 1 18-6 3-6 1-15-6-18l-24-13c-6-3-14-1-18 6l-19 67c-2-1-3-1-5-2 0 0 0 1-1 1-3-1-6 1-9 3-1 1-2 2-3 4-20-11-44-3-54 17-11 20-3 45 17 56l35 19c0 0 49 27 65 80 20 11 52-13 73-54 20-40 21-81 1-91z m62 30c-1-3-4-4-6-3-3 0-5 4-4 6 16 52-12 108-63 124-3 1-5 4-4 7 1 3 4 4 7 3 0 0 0 0 0 0 57-18 88-79 70-137z m41-13c0 0 0 0 0 0-1-6-8-9-13-7-6 2-9 8-7 14 21 69-17 143-85 164-5 2-8 8-6 14 1 6 7 9 13 7 0 0 0 0 0 0 79-25 123-111 98-192z m-277-2l13-24 11 6-12 24z"/>
<glyph glyph-name="city" unicode="&#73;" d="M252 379l9 0 0-13-9 0z m0 22l9 0 0-14-9 0z m0-44l9 0 0-13-9 0z m0-43l9 0 0-13-9 0z m0 22l9 0 0-13-9 0z m14-152l9 0 0-13-9 0z m0 87l9 0 0-13-9 0z m0-21l9 0 0-13-9 0z m0-44l9 0 0-13-9 0z m-14 217l9 0 0-14-9 0z m14-195l9 0 0-14-9 0z m-27 195l9 0 0-14-9 0z m0-44l9 0 0-13-9 0z m0-22l9 0 0-13-9 0z m0 44l9 0 0-14-9 0z m0-87l9 0 0-13-9 0z m0 22l9 0 0-13-9 0z m13-43l9 0 0-13-9 0z m14 0l9 0 0-13-9 0z m-14-109l9 0 0-13-9 0z m0 87l9 0 0-13-9 0z m0-21l9 0 0-13-9 0z m0-44l9 0 0-13-9 0z m0 22l9 0 0-14-9 0z m-94 36l16 0 0-13-16 0z m0-21l16 0 0-14-16 0z m81 50l9 0 0-13-9 0z m-57-133l17 0 0-14-17 0z m-24 62l16 0 0-13-16 0z m108 92l9 0 0-13-9 0z m-108-113l16 0 0-13-16 0z m0-21l16 0 0-13-16 0z m24 84l17 0 0-13-17 0z m0-21l17 0 0-14-17 0z m0-63l17 0 0-13-17 0z m0 42l17 0 0-13-17 0z m0-21l17 0 0-13-17 0z m-24-41l16 0 0-14-16 0z m108 263l9 0 0-14-9 0z m0-22l9 0 0-14-9 0z m0-22l9 0 0-13-9 0z m0-43l9 0 0-13-9 0z m0 21l9 0 0-13-9 0z m-134-177l18 0 0-13-18 0z m0 63l18 0 0-14-18 0z m0-21l18 0 0-13-18 0z m0-62l18 0 0-14-18 0z m0 41l18 0 0-13-18 0z m0 63l18 0 0-13-18 0z m93-14l8 0 0-13-8 0z m110-4l18 0 0-9-18 0z m0 32l18 0 0-10-18 0z m0-48l18 0 0-10-18 0z m0 32l18 0 0-10-18 0z m-27 78l19 0 0-9-19 0z m27-125l18 0 0-10-18 0z m0 110l18 0 0-10-18 0z m27-110l18 0 0-10-18 0z m-27 78l18 0 0-9-18 0z m0 47l18 0 0-9-18 0z m0-31l18 0 0-10-18 0z m-27 16l19 0 0-10-19 0z m0-32l19 0 0-9-19 0z m0-94l72 0 0-10-72 0z m0-16l72 0 0-10-72 0z m0 32l19 0 0-10-19 0z m0 94l19 0 0-10-19 0z m127 202l-356 0c-21 0-37-17-37-38l0-355c0-21 16-38 37-38l132 0 46-80 46 80 132 0c21 0 37 17 37 38l0 355c0 21-16 38-37 38z m-231-389l-78 0 0 145 78 0z m92 0l-88 0 0 314 88 0z m92 0l-88 0 0 228 88 0z m-80 46l72 0 0-10-72 0z m0 62l19 0 0-10-19 0z m0 48l19 0 0-10-19 0z m54-48l18 0 0-10-18 0z m-54 16l19 0 0-9-19 0z m0 16l19 0 0-10-19 0z m-83 74l8 0 0-13-8 0z m0 21l8 0 0-13-8 0z m0 44l8 0 0-14-8 0z m14-130l9 0 0-13-9 0z m-14 108l8 0 0-13-8 0z m0-108l8 0 0-13-8 0z m0 43l8 0 0-13-8 0z m0-21l8 0 0-13-8 0z m14-43l9 0 0-13-9 0z m0-22l9 0 0-14-9 0z m-14 195l8 0 0-14-8 0z m14-217l9 0 0-13-9 0z m0-22l9 0 0-13-9 0z m123 94l18 0 0-10-18 0z m-137-50l8 0 0-14-8 0z m137 65l18 0 0-9-18 0z m0-47l18 0 0-9-18 0z m0 79l18 0 0-10-18 0z m0-63l18 0 0-10-18 0z m0 47l18 0 0-10-18 0z m-137-103l8 0 0-13-8 0z m0-22l8 0 0-13-8 0z m137 156l18 0 0-9-18 0z"/>
<glyph glyph-name="senior" unicode="&#74;" d="M435 511l-356 0c-21 0-37-17-37-38l0-355c0-21 16-38 37-38l132 0 46-80 46 80 132 0c21 0 37 17 37 38l0 355c0 21-16 38-37 38z m-174-71c20 0 36-15 36-35 0-20-16-36-36-36-19 0-35 16-35 36 0 20 16 35 35 35z m63-174c-1 0-1 0-2 0-7 0-13 5-14 12-3 22-7 37-11 48l0-48c0-2 0-5-1-7 0-1 0-1 1-2 2-9 12-56 13-72l0-20c2-43 2-43 2-43 0-9-7-17-16-17-9 0-17 8-17 16 0 2 0 26-1 43l-1 20c0 8-5 32-9 51-2 0-5 0-7 0-2 0-4 0-6 0-5-20-9-43-9-51l-1-20c-1-17-2-41-2-43 0-9-7-16-16-16-9 0-16 8-16 17 0 0 0 0 1 43l1 20c1 15 10 60 13 71-1 3-2 7-2 10l0 45c-6-9-13-17-22-22 0-1 0-1 0-2l0-175c0-4-3-7-7-7-4 0-7 3-7 7l0 173c0 0 0 0 0 0-1 0-1 0-1 0-7 0-13 5-14 12 0 1 0 1 0 1-5-1-8-6-8-11 0-3-3-7-7-7-4 0-7 4-7 7 0 14 12 26 26 26 2 0 4-1 6-1 1 0 2 0 3 0 7 1 15 13 22 24 7 10 14 21 24 29 7-8 18-13 30-13 11 0 21 5 29 13 26-18 37-43 45-95 1-8-4-15-12-16z"/>
<glyph glyph-name="sport" unicode="&#75;" d="M473 473c0 21-17 38-38 38l-356 0c-21 0-37-17-37-38l0-355c0-21 16-38 37-38l132 0 46-80 46 80 132 0c21 0 38 17 38 38z m-142-126c-16 3-30 0-39-4-5-2-17-3-44 2 9 9 19 18 31 25 19-4 37-12 52-23z m-111 18c0 0 13 7 37 7 2 0 4-1 6-1-10-7-19-15-27-24-18 4-17 17-16 18z m-11-3c1-8 5-19 20-24-6-7-12-16-17-24-1 0-3 0-4 0-24 0-46-7-65-18 13 29 37 53 66 66z m-67-158c-5 14-8 29-8 44 0 11 1 22 4 32 19 15 42 23 69 23-6-15-11-32-13-50-21-3-36-11-45-25-4-8-6-16-7-24z m13-25c-2 9-6 29 3 44 6 10 18 17 35 20 0-3 0-5 0-8 0-41 13-78 36-107-30 7-56 26-74 51z m102-54c-4 0-8 0-12 1-26 28-42 67-42 109 0 3 0 6 0 9 22 0 52-9 62-59 6-28 18-45 38-51-15-6-30-9-46-9z m61 16c-23 2-37 17-43 46-12 58-48 67-71 67 2 17 7 34 15 49 3 0 6-1 9-1 66-10 117-56 136-115-11-19-27-35-46-46z m52 59c-5 15-13 29-23 43-29 38-70 62-117 69-2 0-4 0-6 1 4 8 10 15 16 23 28-6 46-6 56-2 1 0 38 15 61-14l0 0c15-20 23-45 23-72 0-17-3-33-10-48z"/>
<glyph glyph-name="theatre" unicode="&#79;" d="M193 239l-44-12c-2 0-4-2-5-4-1-2-1-5 0-7 2-2 30-46 64-37 30 7 44 12 45 13 2 0 3 2 4 4 1 2 1 5-1 6-1 2-29 45-63 37z m192 46c-2 2-4 2-7 2l-44-12c-34-9-37-60-38-62 0-2 1-5 3-6 1-2 4-2 6-2 0 0 15 3 45 10 34 9 37 62 37 64 1 3 0 5-2 6z m50 226l-356 0c-21 0-37-17-37-38l0-355c0-21 16-38 37-38l132 0 46-80 46 80 132 0c21 0 37 17 37 38l0 355c0 21-16 38-37 38z m-17-251c-1-56-21-91-59-101-26-7-49-7-69 0-15-16-35-27-61-34-38-10-73 11-102 60-20 35-30 73-31 74 0 3 0 7 3 8 2 2 5 2 7 1 3-1 20-3 83 13 22 6 44 5 67-2 13 58-34 112-34 113-2 2-2 4-2 6 1 2 2 4 4 5 0 0 6 4 15 6 11 3 28 4 44-4 16-8 29-23 37-46 7 9 16 26 11 46-1 3 0 6 3 7 2 2 5 2 8 1 0-1 13-8 22-24 7-12 14-32 8-59 13 6 25 14 25 14 2 2 5 2 7 1 2-1 4-3 4-5 1-2 11-39 10-80z"/>
<glyph glyph-name="work" unicode="&#81;" d="M122 271l0-13 11-2 0 24z m351 202c0 21-17 38-38 38l-356 0c-21 0-37-17-37-38l0-355c0-21 16-38 37-38l132 0 46-80 46 80 132 0c21 0 38 17 38 38z m-291-81c1 0 3 0 4 0 20-3 31-19 30-45l-8 1-55 8-7 1c5 22 18 35 36 35z m61-222l11 19-58 33 4-14 11-29-11-56-21 0 9 49-15 41-17 0-5-39-18-51-22 0 16 51 4 63-25 6 0 42 32 28 14-2 11 10 1 0c-8 5-13 14-13 23 0 3 0 4 1 6l56-7c-1-13-10-24-23-26l4-9 18-1 6-51 8-27-18 11-5 11-3 25-6-27 3-13 68-38 10 18 25-14-26-46z m86-47l20 26 16 0 18-26z m61 0l-23 32-20 0-25-32-55 0 47 85 14-5 20 31 17-4 43-107z"/>
<glyph glyph-name="instagram" unicode="&#68;" d="M426 105l0 185-39 0c4-12 6-25 6-38 0-24-6-46-18-66-13-20-29-36-50-48-21-12-44-18-69-18-37 0-69 13-96 39-27 26-40 57-40 93 0 13 2 26 6 38l-41 0 0-185c0-5 2-10 5-13 4-3 8-5 13-5l305 0c5 0 9 2 13 5 3 3 5 8 5 13z m-81 152c0 23-9 44-26 60-18 17-38 25-63 25-24 0-45-8-62-25-17-16-26-37-26-60 0-24 9-44 26-61 17-16 38-25 62-25 25 0 45 9 63 25 17 17 26 37 26 61z m81 103l0 47c0 5-2 10-6 14-4 4-8 6-14 6l-50 0c-5 0-10-2-14-6-4-4-5-9-5-14l0-47c0-6 1-10 5-14 4-4 9-6 14-6l50 0c6 0 10 2 14 6 4 4 6 8 6 14z m49 59l0-326c0-16-5-29-16-40-11-11-24-16-40-16l-326 0c-16 0-29 5-40 16-11 11-16 24-16 40l0 326c0 16 5 29 16 40 11 11 24 16 40 16l326 0c16 0 29-5 40-16 11-11 16-24 16-40z"/>
<glyph glyph-name="linkedin" unicode="&#82;" d="M136 333l0-283-94 0 0 283z m6 88c0-14-4-26-14-35-10-9-23-14-39-14l0 0c-16 0-29 5-38 14-10 9-14 21-14 35 0 14 4 26 14 35 10 9 23 14 39 14 16 0 28-5 38-14 9-9 14-21 14-35z m333-208l0-163-94 0 0 152c0 20-3 35-11 47-8 11-20 17-36 17-12 0-22-4-30-10-9-7-15-15-19-25-2-5-3-13-3-23l0-158-94 0c1 76 1 138 1 185 0 47 0 76 0 85l-1 13 94 0 0-41 0 0c4 6 7 12 11 16 4 5 10 10 17 15 6 5 15 10 24 13 10 3 21 4 33 4 33 0 59-11 79-32 20-22 29-54 29-95z"/>
<glyph glyph-name="pencil" unicode="&#86;" d="M140 73l26 26-67 67-26-26 0-30 37 0 0-37z m150 265c0 4-2 7-7 7-1 0-3-1-4-2l-155-155c-2-2-2-3-2-5 0-4 2-6 6-6 2 0 4 0 5 2l155 154c1 2 2 3 2 5z m-16 55l119-119-238-237-118 0 0 118z m195-27c0-10-3-19-10-26l-48-47-118 118 47 48c7 7 15 10 26 10 10 0 18-3 26-10l67-67c7-8 10-16 10-26z"/>
<glyph glyph-name="cog-gear" unicode="&#88;" d="M329 256c0 20-7 37-21 52-15 14-32 21-52 21-20 0-37-7-52-21-14-15-21-32-21-52 0-20 7-37 21-52 15-14 32-21 52-21 20 0 37 7 52 21 14 15 21 32 21 52z m146 31l0-63c0-3 0-5-2-7-1-2-3-3-6-4l-52-8c-4-10-8-19-12-26 7-9 17-22 31-39 2-2 3-5 3-7 0-3-1-5-3-7-5-7-14-17-28-31-14-13-23-20-27-20-2 0-5 1-7 3l-40 31c-8-5-17-8-26-11-3-26-6-44-8-53-1-6-5-8-10-8l-64 0c-2 0-5 0-7 2-2 2-3 4-3 6l-8 53c-9 3-18 6-26 10l-40-30c-2-2-4-3-7-3-3 0-5 1-7 3-24 22-40 38-47 48-2 2-2 4-2 7 0 2 0 4 2 6 3 4 8 11 14 19 7 9 12 16 16 21-5 9-9 19-12 28l-52 8c-3 0-5 1-6 3-2 2-2 4-2 7l0 63c0 3 0 5 2 7 1 2 3 3 5 4l53 8c3 8 7 17 12 26-8 11-18 24-31 39-2 3-3 5-3 7 0 2 1 4 3 7 5 7 14 17 28 30 14 14 23 21 27 21 2 0 5-1 7-3l40-31c8 5 17 8 26 11 3 26 6 44 8 53 1 6 5 8 10 8l64 0c2 0 5 0 7-2 2-2 3-4 3-6l8-53c9-3 18-6 26-10l40 30c2 2 4 3 7 3 3 0 5-1 7-3 25-23 41-39 47-49 2-1 2-3 2-6 0-2 0-4-2-6-3-4-8-11-14-19-7-9-12-16-16-21 5-9 9-18 12-28l52-8c3 0 5-1 6-3 2-2 2-4 2-7z"/>
<glyph glyph-name="log-out" unicode="&#89;" d="M201 101c0-1 0-3 0-6 1-3 1-6 1-8-1-2-1-4-1-6-1-3-2-5-3-6-2-1-4-2-6-2l-91 0c-23 0-42 8-59 24-16 16-24 36-24 58l0 202c0 22 8 42 24 58 17 16 36 24 59 24l91 0c2 0 5-1 6-3 2-2 3-4 3-6 0-1 0-3 0-6 1-3 1-6 1-8-1-2-1-4-1-6-1-3-2-5-3-6-2-1-4-2-6-2l-91 0c-13 0-24-4-33-13-9-9-13-20-13-32l0-202c0-12 4-23 13-32 9-9 20-13 33-13l89 0c0 0 1 0 3-1 2 0 3 0 3 0 0-1 1-1 3-2 1-1 2-2 2-3-1-1 0-2 0-3z m265 155c0-5-2-9-5-13l-156-155c-3-4-7-6-12-6-5 0-10 2-13 6-4 3-6 8-6 13l0 82-128 0c-5 0-9 2-13 5-3 4-5 8-5 13l0 110c0 5 2 9 5 13 4 3 8 5 13 5l128 0 0 82c0 5 2 10 6 13 3 4 8 6 13 6 5 0 9-2 12-6l156-155c3-4 5-8 5-13z"/>
<glyph glyph-name="log-in" unicode="&#90;" d="M375 256c0-5-2-9-6-13l-155-155c-4-4-8-6-13-6-5 0-9 2-13 6-3 3-5 8-5 13l0 82-128 0c-5 0-9 2-13 5-4 4-5 8-5 13l0 110c0 5 1 9 5 13 4 3 8 5 13 5l128 0 0 82c0 5 2 10 5 13 4 4 8 6 13 6 5 0 9-2 13-6l155-155c4-4 6-8 6-13z m100 101l0-202c0-22-8-42-24-58-16-16-35-24-58-24l-91 0c-3 0-5 1-7 3-2 2-2 4-2 6 0 1-1 3-1 6 0 3 0 6 0 8 0 2 1 4 1 6 0 3 1 5 3 6 1 1 3 2 6 2l91 0c13 0 23 4 32 13 9 9 14 20 14 32l0 202c0 12-5 23-14 32-9 9-19 13-32 13l-89 0c0 0-1 0-3 1-2 0-4 0-4 0 0 1 0 1-2 2-1 1-2 2-2 3 0 1 0 2 0 3 0 1-1 3-1 6 0 3 0 6 0 8 0 2 1 4 1 6 0 3 1 5 3 6 1 1 3 2 6 2l91 0c23 0 42-8 58-24 16-16 24-36 24-58z"/>
<glyph glyph-name="open-hours" unicode="&#48;" d="M415 63c-43 0-78 30-83 69 0 4-1 7-1 10 0 1 0 2 0 2 2 41 35 74 77 77 2 0 5 1 7 1 2 0 4-1 6-1 43-3 77-37 77-79 0-44-37-79-83-79m-96 81l-306 0 0 296 57 0 0-8c-9-3-16-11-16-20 0-11 10-21 22-21 12 0 22 10 22 21 0 9-7 17-16 20l0 8 77 0 0-8c-8-3-15-11-15-20 0-11 10-21 22-21 12 0 21 10 21 21 0 9-6 17-15 20l0 8 77 0 0-8c-9-3-15-11-15-20 0-11 9-21 21-21 12 0 22 10 22 21 0 9-6 17-15 20l0 8 77 0 0-8c-9-3-16-11-16-20 0-11 10-21 22-21 12 0 22 10 22 21 0 9-7 17-16 20l0 8 57 0 0-207c-49-3-88-41-89-89m-248 275c1-2 3-3 5-3 2 0 5 1 6 3 2-2 3-4 3-7 0-5-4-8-9-8-5 0-9 3-9 8 0 3 1 5 4 7m89 0c1-2 3-3 6-3 2 0 4 1 5 3 2-2 4-4 4-7 0-5-4-8-9-8-5 0-9 3-9 8 0 3 1 5 3 7m90 0c1-2 3-3 5-3 3 0 5 1 6 3 2-2 3-4 3-7 0-5-4-8-9-8-5 0-9 3-9 8 0 3 2 5 4 7m89 0c1-2 4-3 6-3 2 0 4 1 5 3 3-2 4-4 4-7 0-5-4-8-9-8-5 0-9 3-9 8 0 3 1 5 3 7m82-186l0 213c0 3-3 6-6 6l-64 0 0 6c0 3-3 6-6 6-4 0-6-3-6-6l0-6-77 0 0 6c0 3-3 6-7 6-3 0-6-3-6-6l0-6-77 0 0 6c0 3-3 6-6 6-4 0-7-3-7-6l0-6-77 0 0 6c0 3-2 6-6 6-3 0-6-3-6-6l0-6-64 0c-3 0-6-3-6-6l0-308c0-3 3-6 6-6l313 0c5-45 46-81 96-81 53 0 96 41 96 91 0 49-40 88-90 91m32-93l-36 0 0 48c0 4-3 7-7 7-3 0-6-3-6-7l0-54c0-3 3-6 6-6l43 0c4 0 7 3 7 6 0 4-3 6-7 6m-371 218l-24 0c-3 0-5-2-5-5l0-23c0-2 2-5 5-5l24 0c3 0 5 3 5 5l0 23c0 3-2 5-5 5m70 0l-24 0c-3 0-5-2-5-5l0-23c0-2 2-5 5-5l24 0c3 0 5 3 5 5l0 23c0 3-2 5-5 5m71 0l-25 0c-2 0-5-2-5-5l0-23c0-2 3-5 5-5l25 0c2 0 5 3 5 5l0 23c0 3-3 5-5 5m70 0l-24 0c-3 0-5-2-5-5l0-23c0-2 2-5 5-5l24 0c3 0 5 3 5 5l0 23c0 3-2 5-5 5m46-33l24 0c3 0 5 3 5 5l0 23c0 3-2 5-5 5l-24 0c-3 0-5-2-5-5l0-23c0-2 2-5 5-5m-257-34l-24 0c-3 0-5-2-5-5l0-23c0-3 2-5 5-5l24 0c3 0 5 2 5 5l0 23c0 3-2 5-5 5m70 0l-24 0c-3 0-5-2-5-5l0-23c0-3 2-5 5-5l24 0c3 0 5 2 5 5l0 23c0 3-2 5-5 5m71 0l-25 0c-2 0-5-2-5-5l0-23c0-3 3-5 5-5l25 0c2 0 5 2 5 5l0 23c0 3-3 5-5 5m70 0l-24 0c-3 0-5-2-5-5l0-23c0-3 2-5 5-5l24 0c3 0 5 2 5 5l0 23c0 3-2 5-5 5m75-28l0 23c0 3-2 5-5 5l-24 0c-3 0-5-2-5-5l0-23c0-3 2-5 5-5l24 0c3 0 5 2 5 5m-286-39l-24 0c-3 0-5-2-5-5l0-23c0-3 2-5 5-5l24 0c3 0 5 2 5 5l0 23c0 3-2 5-5 5m70 0l-24 0c-3 0-5-2-5-5l0-23c0-3 2-5 5-5l24 0c3 0 5 2 5 5l0 23c0 3-2 5-5 5m71 0l-25 0c-2 0-5-2-5-5l0-23c0-3 3-5 5-5l25 0c2 0 5 2 5 5l0 23c0 3-3 5-5 5m70 0l-24 0c-3 0-5-2-5-5l0-23c0-3 2-5 5-5l24 0c3 0 5 2 5 5l0 23c0 3-2 5-5 5"/>
<glyph glyph-name="pad" unicode="&#57;" d="M213 354c-4 2-8 0-10-3l-13-25-8 9c-2 3-7 4-10 2-3-3-4-7-1-10l14-19c2-1 4-2 6-2 0 0 0 0 1 0 2 0 4 1 6 3l18 36c2 3 1 7-3 9m19-29c0-4 3-7 7-7l221 0c4 0 8 3 8 7 0 4-4 7-8 7l-221 0c-4 0-7-3-7-7m-19-31c-4 2-8 1-10-3l-13-25-8 10c-2 3-7 3-10 1-3-2-4-7-1-10l14-18c2-2 4-3 6-3 0 0 0 0 1 0 2 0 4 2 6 4l18 35c2 3 1 8-3 9m247-22l-221 0c-4 0-7-3-7-7 0-4 3-7 7-7l221 0c4 0 8 3 8 7 0 4-4 7-8 7m0-60l-221 0c-4 0-7-3-7-7 0-3 3-6 7-6l221 0c4 0 8 3 8 6 0 4-4 7-8 7m0-64l-221 0c-4 0-7-3-7-7 0-4 3-7 7-7l221 0c4 0 8 3 8 7 0 4-4 7-8 7m0-60l-221 0c-4 0-7-3-7-7 0-3 3-6 7-6l221 0c4 0 8 3 8 6 0 4-4 7-8 7m35-52l-353 0 0 67 39-28c1-1 3-1 4-1 1 0 2 0 3 1 3 1 4 3 5 5l4 72c0 1 0 2-1 3l-2 5 0 0-52 97 0 209 67 0 0-14c-12-3-20-13-20-25 0-15 12-27 27-27 16 0 28 12 28 27 0 12-9 22-21 25l0 14 88 0 0-14c-11-3-20-13-20-25 0-15 12-27 28-27 15 0 27 12 27 27 0 12-8 22-20 25l0 14 88 0 0-14c-12-3-21-13-21-25 0-15 13-27 28-27 15 0 28 12 28 27 0 12-9 22-21 25l0 14 67 0z m-353 91l40 20-2-39-12-6-26 18-7 4z m-15 9l0 0 0 0-96 178 50 25 46-85 15-27 35-67-35-17z m-111 206c-2 3-2 7-1 10 1 4 4 7 7 8l25 13c7 3 16 0 19-6l9-16-50-25z m193 95c1-3 4-5 7-5 4 0 7 2 7 5 4-2 6-6 6-10 0-7-5-13-13-13-7 0-13 6-13 13 0 4 3 8 6 10z m103 0c0-3 3-5 7-5 3 0 6 2 7 5 3-2 6-6 6-10 0-7-6-13-13-13-8 0-14 6-14 13 0 4 3 8 7 10z m102 0c1-3 3-5 7-5 3 0 6 2 7 5 4-2 6-6 6-10 0-7-6-13-13-13-7 0-13 6-13 13 0 4 2 8 6 10z m89 42l-75 0 0 7c0 3-3 7-7 7-4 0-7-4-7-7l0-7-88 0 0 7c0 3-3 7-7 7-4 0-8-4-8-7l0-7-88 0 0 7c0 3-3 7-7 7-4 0-7-4-7-7l0-7-75 0c-4 0-7-3-7-7l0-188-48 89c-7 13-24 19-38 12l-25-12c-7-4-12-9-15-16-2-7-1-15 2-21l115-213 0 0c0 0 0 0 0 0l2-5c1-1 2-2 3-2l4-3 0-84c0-4 3-7 7-7l369 0c4 0 7 3 7 7l0 443c0 4-3 7-7 7z"/>
<glyph glyph-name="build" unicode="&#33;" d="M277 359c0-11-10-20-22-20-12 0-22 9-22 20 0 12 10 21 22 21 12 0 22-9 22-21m-59 0c0-19 17-34 37-34 20 0 37 15 37 34 0 19-17 35-37 35-20 0-37-16-37-35m193-78l0 0 0 0z m-312 0l0 0 0 11z m376 30l-440 0 0 27 220 79 220-79z m-53-269l4 230 0 21 0 3 32 0 5-254z m-199 225l-4-225-116 0-4 225z m1 29l0-15-125 0 0 11 0 5 125 0z m47-15l1-14 4-225-42 0 4 225 1 14 0 15 32 0z m140-14l-5-225-115 0-4 225z m-125 30l125 0 0-16 0 0-125 0 0 15z m-239-255l5 254 32 0 0-25 4-229z m428-14l0-10-440 0 0 10z m-212 435l49 0 0 29-49 0z m227-159l0 39c0 3-2 6-5 7l-222 79 0 20 56 0c5 0 8 3 8 7l0 43c0 4-3 7-8 7l-57 0c0 3-3 6-7 6-4 0-8-3-8-7l0-76-222-79c-3-1-5-4-5-7l0-39c0-4 4-7 8-7l9 0-5-255-4 0c-4 0-8-3-8-7l0-24c0-4 4-7 8-7l454 0c4 0 8 3 8 7l0 24c0 4-4 7-8 7l-4 0-5 255 9 0c4 0 8 3 8 7z"/>
<glyph glyph-name="trash-1" unicode="&#59;" d="M498 417c0-4-3-7-8-7l-312 0c-5 0-8 3-8 7l0 11c0 4 3 8 8 8l312 0c5 0 8-4 8-8z m-46-314c-1-7-8-13-17-13l-156 0c0 12-3 23-5 32-8 28-19 56-32 83-6 12-13 25-27 34-4 2-8 4-13 6l-11 153 286 0z m-187-24c-2-10-7-17-15-22-13-10-35-15-67-14-40 0-81 7-118 20-26 9-42 19-48 31-4 7-5 15-4 25 1 26 7 47 19 65 8 10 20 21 34 30-6-6-11-13-15-20-2-2-2-6 1-8 3-2 7-1 9 2 8 10 16 21 27 30 8 7 21 15 38 19 32-15 49-40 46-63-1-4 1-7 5-7 0 0 1 0 1 0 3 0 6 2 6 5 4 25-11 50-38 67 1 0 2 1 3 1 2 0 3 0 4-1 13 0 26-1 37-3 5-2 9-3 13-5 2 0 4-1 5-2 12-7 18-18 23-29 12-26 23-54 31-81 3-11 4-20 4-29 0-4 0-8-1-11z m-183 188l18-1c2-1 5 1 6 3 1 2 1 5-1 7-4 3-5 5-5 6 0 1 1 2 4 2 2 1 4 0 6-1 6-3 11-7 14-11 2-2 5-2 8-1 2 1 4 3 3 6 0 2 2 5 6 7 4 2 11 2 16 1 2-1 2-2 2-2 2-2 2-5 1-9-4-10-18-21-28-23-18-4-41 6-50 16z m196 203c0 1 1 2 2 2l108 0c1 0 2-1 2-2l0-23-112 0z m212-23l-88 0 0 23c0 8-6 14-14 14l-108 0c-8 0-14-6-14-14l0-23-88 0c-11 0-21-8-21-19l0-11c0-10 10-19 21-19l0 0 11-150c-10 2-21 3-32 3 7 6 12 12 15 19 3 8 2 16-3 21 0 0 0 0 0 0-2 2-5 3-8 5-8 3-18 2-26-1-4-2-7-5-9-8-3 2-7 4-11 6-3 2-7 3-12 3-9 0-15-7-15-14 0-1 0-2 0-3l-7 1c-3 0-7 0-10-2-3-2-5-6-3-11 5-10 17-19 31-24-33-12-63-32-77-53-13-19-21-42-22-70 0-10 0-21 6-32 8-14 25-26 55-36 38-13 80-21 122-21 2 0 3 0 5 0 32 0 55 5 70 16 12 9 18 20 20 32l157 0c15 0 28 10 29 23l26 296 0 0c11 0 21 9 21 19l0 11c0 11-10 19-21 19z m-195-141c1 4 3 7 5 10 3 5 7 7 12 7 5 1 10-1 13-4 1-2 3-4 4-6 1-1 2-3 3-4 1-2 1-2 0-4-4-7-9-15-13-22l-5-8-29 15z m39 17l4 0c8 0 17-1 25-1 4 0 6-1 8-4 3-4 5-8 8-13l3-5c1-1 2-1 3-1l3 2-3-6c-3-4-5-9-8-13 0-1-1-1-1-1-8 0-16-1-24-1l4 2c0 0 0 0 1 1 0 0 0 1-1 1-2 5-5 9-8 13-5 9-10 17-16 26 1 0 1 0 2 0z m-58-36l40-21c0 0 0 0 1 0 0 0 1 0 2 1l19 33 9-15-19-10c0 0-1-1-1-2 1-1 2-1 3-1 14 0 29 1 48 2 2 0 4 1 5 2 4 9 9 17 14 25l8 13c0 1 0 2-1 3-1 0-2 0-3 0l-15-9-7 11c-1 2-1 3-2 4-5 6-12 7-16 7-13 0-25 0-38 0l-4 0c0 0-1 1-1 1l-1 0c-1 0-1 0-1 0l-5 0c-1 0-1 0-1 0 0 0 0 0-1-1-7-1-12-5-16-11l-17-30c-1-1-1-2 0-2z m131-26c3-4 5-8 8-12 3-5 2-10 1-13-2-4-6-8-10-9-2 0-3 0-5 0-1 0-2 0-4 0l-1 0c-1 0-1 0-2 0-2 0-3-1-4 0-1 0-2 2-2 3 0 0-1 1-1 2-5 8-10 16-15 24l-1 2 29 16z m-19-66c-2-3-5-4-9-5-4 1-9 1-14 1l-7 0c-1 0-2-1-2-2l0-4c-1 2-2 3-3 5l-1 2c-3 4-5 8-8 13 0 0 0 0 0 0 0 0 0 0 0 0 4 7 7 14 11 20l0-3c0-1 1-1 1-2 0 0 1 0 1 0l0 0c6 0 13 0 19-1 9 0 19 0 29 1z m13 88l-39-21c-1 0-2-2-1-3l20-32-18 0 0 20c0 1 0 1-1 2 0 0-1 0-2 0 0-1-1-1-1-1l-6-11c-5-10-11-20-17-30-1-2 0-3 0-4 8-12 15-24 22-36 0-1 1-1 1-1l0-1c1 0 1 0 2 0 0 0 0 0 0 0l1 0c1 0 2 1 2 2l0 16 3 0c4 0 8 0 12 0 7 0 13 3 16 9 3 4 6 8 8 12l2 2c5 8 11 16 16 23 5 8 5 16 0 24-3 5-6 10-9 15l-1 3c-2 2-4 5-5 8l-3 4c0 0-1 1-2 0z m-132-14c7 0 13 0 20 0 1 0 1 0 1 0 4-6 8-12 12-18l0-1-3 2c0 0-1 0-1 0-1 0-1 0-2-1-2-4-5-9-8-13-5-8-11-17-15-26l-8 13c-2 5-5 9-7 13-2 3-2 6 0 9 3 5 6 9 9 13l1 3c0 0 1 1 1 1l0 1c1 1 1 2 0 3l-3 1z m51-48l5 0 0-32-6 0c-7 0-14 0-21 0-5 0-8 0-12 2-6 4-9 13-6 19 2 4 4 7 6 11 0 0 1 0 0 0 12 0 23 0 34 0z m-60 43l-8-13c-4-5-4-11-1-17 2-2 3-5 5-8l3-5c1-2 2-5 4-7 3-6 6-12 9-18 5-9 13-14 23-14l36 0c1 0 2 1 2 2l0 42c0 1-1 2-2 2l-40 0 9 15 18-11c1 0 2 0 3 0 0 1 1 2 0 3l0 0c0 0 0 1 0 1l-2 3c-8 12-16 24-24 36-1 1-2 2-4 2-15 0-29 0-44 0-1 0-1 0-2 0l0-1c-1 0-2 0-2-1 0-1 0-2 1-2z"/>
<glyph glyph-name="doctor" unicode="&#104;" d="M439 411c-23 23-52 36-86 36-32 0-62-13-85-36l-9-9-9 9c-23 23-53 36-86 36-32 0-63-13-86-36-47-47-47-123 0-170l172-172c2-2 5-4 9-4 3 0 6 2 9 4l171 172c23 23 36 52 36 85-1 32-13 62-36 85z m-18-152l-162-163-162 163c-37 37-37 97 0 134 18 18 43 28 68 28 26 0 50-10 68-28l18-18c5-5 13-5 18 0l18 18c18 18 42 28 68 28 25 0 49-10 67-28 36-37 36-97-1-134z m-362 26l-46 0c-7 0-13-5-13-12 0-7 5-13 13-13l46 0c6 0 13 5 13 13 0 7-5 12-13 12z m398 0l-122 0-19 41c-1 3-5 6-8 6-3 0-6-3-7-6l-39-108-47 130c-1 4-4 5-8 5-3 0-6-1-7-5l-32-66-104 0c-5 0-9-4-9-9 0-5 5-8 10-8l110 0c4 0 5 1 7 4l25 54 49-134c1-3 4-5 8-5 4 0 6 3 7 5l40 112 13-27c1-3 6-5 9-5l127 0c5 0 6 4 6 7 0 6-4 9-9 9z m42 6l-38 0c-7 0-13-6-13-13 0-8 5-13 13-13l38 0c7 0 13 5 13 13 0 7-5 13-13 13z"/>
<glyph glyph-name="user-1" unicode="&#34;" d="M256 462c44 0 79-35 79-78 0-43-35-78-79-78-43 0-78 35-78 78 0 43 35 78 78 78m0 50c-70 0-128-57-128-128 0-71 58-128 128-128 71 0 129 57 129 128 0 71-58 128-129 128z m209-512c-14 0-25 11-25 25l0 37c0 47-39 86-87 86l-195 0c-47 0-86-39-86-86l0-37c-2-13-13-23-25-23-13 0-24 10-26 23l0 37c0 75 62 137 138 137l194 0c76 0 138-62 138-137l0-37c-1-14-12-25-26-25z"/>
<glyph glyph-name="download2" unicode="&#35;" d="M351 268l-68-68 0 305-54 0 0-305-68 68-38-38 133-133 133 133z m-284-207l378 0 0-54-378 0z"/>
<glyph glyph-name="email" unicode="&#36;" d="M491 454l-470 0c-12 0-21-9-21-21l0-354c0-12 9-21 21-21l470 0c12 0 21 9 21 21l0 354c0 12-9 21-21 21z m-9-349l-156 116c4 7 9 12 14 16 2 5 4 7 7 10 14 16 93 107 132 151l0-293z m-275 95c14-9 30-18 49-18 19 0 35 7 49 18l149-112-393 0z m256 224c-37-42-121-140-135-156-2-3-42-54-74-54-33 0-65 49-68 54-14 14-102 114-137 156z m-300-175c5-5 7-9 12-14 2-5 7-9 11-14l-156-116 0 293c40-44 121-137 133-149z"/>
<glyph glyph-name="location" unicode="&#37;" d="M256 500c-91 0-165-74-165-165 0-25 4-49 16-70l119-239c0 0 9-26 35-26 28 0 35 26 35 26 0 0 114 242 114 244 9 21 14 42 14 65-3 91-77 165-168 165z m128-218c-5-10-21-47-21-47l-98-200c0 0-2-7-7-7-4 0-7 5-7 5l-97 200c0 0-14 30-19 39-9 21-14 42-14 63 0 79 56 140 135 140 79 0 137-61 137-140 0-21-2-37-9-53z m-128 137c-37 0-70-30-70-70 0-37 30-70 70-70 37 0 70 31 70 70 0 40-30 70-70 70z m0-109c-23 0-42 18-42 41 0 24 19 42 42 42 23 0 42-21 42-44 0-21-19-39-42-39z"/>
<glyph glyph-name="phone-1" unicode="&#38;" d="M112 482c2 0 4-3 7-5 4-9 16-30 28-51 9-19 18-35 23-42 9-16 7-19 5-23-7-10-7-10-12-12-2-2-7-7-14-14 0 0-7-9-9-14 0-4 0-9 0-9 2-44 100-151 163-170 0 0 9-2 18 0 7 2 14 9 14 9 2 5 7 7 9 10 3 2 7 7 10 9 7 7 14 12 18 12 3 0 3 0 5-3 9-7 28-16 49-28 16-9 32-21 46-28 7-4 10-9 10-9 0-2-3-2-3-5-16-16-44-44-58-60-11-12-23-19-37-19-5 0-9 0-14 3-91 18-147 62-221 135-56 53-105 139-114 195-7 30 0 42 5 49 11 12 53 56 65 65 2 2 4 5 7 5m0 30c-10 0-19-5-28-12-12-11-54-55-65-67-17-16-24-42-17-77 10-63 63-154 124-212 74-74 137-121 237-142 7-2 14-2 21-2 28 0 47 14 58 28 16 14 44 42 61 60 18 19 11 47-14 61-28 16-77 46-96 56-7 4-14 4-21 4-14 0-28-7-42-20-7-7-11-12-18-19-56 16-140 116-142 144 21 19 16 12 28 28 16 21 7 40-3 56-9 16-41 77-48 93-10 14-21 21-35 21z"/>
<glyph glyph-name="boussole" unicode="&#39;" d="M154 145c-2 0-6 2-7 2-2 1-4 7-2 10l62 143c1 2 1 4 5 5l143 62c3 2 7 0 10-2 4-1 4-7 2-10l-62-143c-1-2-1-4-5-5l-143-62c-2 0-2 0-3 0z m68 145l-51-119 121 51 51 121z m34-281c-137 0-247 110-247 247 0 137 110 247 247 247 137 0 247-110 247-247 0-137-110-247-247-247z m0 477c-126 0-230-104-230-230 0-126 104-230 230-230 126 0 230 104 230 230 0 126-104 230-230 230z"/>
<glyph glyph-name="search-1" unicode="&#40;" d="M497 19l-127 111c45 39 74 97 74 160 0 118-96 213-214 213-117 0-213-95-213-213 0-118 96-213 213-213 48 0 91 15 127 42 0 0 0-1 1-1l128-111c2-2 4-2 6-2 1 0 5 2 6 4 2 1 2 6-1 10z m-463 271c0 108 89 196 196 196 108 0 197-88 197-196 0-107-89-196-197-196-107 0-196 89-196 196z"/>
<glyph glyph-name="search-2" unicode="&#41;" d="M490 49l-132 115c36 37 60 87 60 143 0 113-92 205-205 205-112 0-204-92-204-205 0-112 92-205 204-205 38 0 74 11 104 29l139-121c5-3 10-7 17-7 7 0 13 4 19 9 10 12 10 27-2 37z m-430 258c0 86 68 154 153 154 86 0 154-68 154-154 0-85-68-153-154-153-85 0-153 68-153 153z"/>
<glyph glyph-name="cross" unicode="&#42;" d="M294 256l210 210c11 11 11 28 0 38-10 11-27 11-38 0l-210-210-210 210c-11 11-28 11-38 0-11-10-11-27 0-38l210-210-210-210c-11-11-11-28 0-38 10-11 27-11 38 0l210 210 210-210c11-11 28-11 38 0 11 10 11 27 0 38z"/>
<glyph glyph-name="youtube-play" unicode="&#43;" d="M366 256c0 7-3 12-9 15l-146 92c-6 4-12 4-19 0-6-3-9-8-9-16l0-182c0-8 3-13 9-16 3-2 6-3 9-3 4 0 7 1 10 3l146 92c6 3 9 8 9 15z m146 0c0-18 0-33 0-43 0-10-1-23-3-39-1-16-3-30-6-42-3-14-10-26-20-35-10-10-22-15-35-17-43-4-106-7-192-7-86 0-149 3-192 7-13 2-25 7-35 17-10 9-17 21-20 35-3 12-5 26-6 42-2 16-3 29-3 39 0 10 0 25 0 43 0 18 0 33 0 43 0 10 1 23 3 39 1 16 3 30 6 42 3 14 10 26 20 35 10 10 22 15 35 17 43 4 106 7 192 7 86 0 149-3 192-7 13-2 25-7 35-17 10-9 17-21 20-35 3-12 5-26 6-42 2-16 3-29 3-39 0-10 0-25 0-43z"/>
<glyph glyph-name="google-plus-1" unicode="&#44;" d="M309 278c1-8 2-16 2-26 0-87-59-150-147-150-85 0-154 69-154 154 0 85 69 154 154 154 41 0 76-16 103-41l-42-40c-11 11-31 24-61 24-53 0-95-43-95-97 0-54 42-97 95-97 61 0 83 44 87 66l-87 0 0 53z m148-5l0 44-45 0 0-44-44 0 0-45 44 0 0-44 45 0 0 44 45 0 0 45z"/>
<glyph glyph-name="check" unicode="&#45;" d="M192 92c-11 0-22 5-30 13l-121 118c-17 17-17 43 0 59 16 16 43 16 59 0l92-90 220 215c16 17 43 17 59 0 17-16 17-42 0-58l-249-244c-8-8-19-13-30-13z"/>
<glyph glyph-name="wheelchair" unicode="&#46;" d="M311 173l29-58c-11-35-31-62-60-83-29-21-62-32-97-32-30 0-57 7-83 22-25 15-45 35-60 60-14 25-22 53-22 83 0 34 10 65 30 94 20 28 46 48 79 60l4-37c-23-11-41-26-55-48-14-21-21-44-21-69 0-36 12-66 37-91 25-25 56-37 91-37 24 0 46 6 66 18 21 13 36 29 47 50 12 21 16 44 15 68z m156-29l17-32-73-37c-3-1-6-2-9-2-7 0-13 3-16 10l-68 136-135 0c-5 0-9 2-12 5-4 3-6 7-6 12l-28 222c0 3 0 7 2 12 3 10 8 18 16 24 8 6 18 9 28 9 12 0 23-5 32-14 9-9 14-19 14-32 0-13-5-24-15-33-10-10-22-14-35-12l11-83 121 0 0-36-116 0 4-37 130 0c8 0 13-3 16-10l66-130z"/>
<glyph glyph-name="bus" unicode="&#47;" d="M496 352l-16 0 0-96 16 0c9 0 16 7 16 16l0 64c0 9-7 16-16 16m-144 128l-192 0c-53 0-96-43-96-96l0-288c0-18 14-32 32-32l0-32c0-18 14-32 32-32l32 0c18 0 32 14 32 32l0 32 128 0 0-32c0-18 14-32 32-32l32 0c18 0 32 14 32 32l0 32c18 0 32 14 32 32l0 288c0 53-43 96-96 96m-160-32l128 0 0-32-128 0z m-64-352c-18 0-32 14-32 32 0 18 14 32 32 32 18 0 32-14 32-32 0-18-14-32-32-32m256 0c-18 0-32 14-32 32 0 18 14 32 32 32 18 0 32-14 32-32 0-18-14-32-32-32m32 96l-320 0 0 192 320 0z m-416 144l0-64c0-9 7-16 16-16l16 0 0 96-16 0c-9 0-16-7-16-16"/>
<glyph glyph-name="boussole-bold" unicode="&#58;" d="M145 126c-5 0-10 2-14 5-5 6-6 14-3 21l67 155c1 5 5 9 10 10l155 67c7 3 15 2 21-3 5-6 6-14 3-21l-67-155c-1-5-5-9-10-10l-155-67c-2-2-5-2-7-2z m80 161l-46-106 106 46 46 106z m31-287c-142 0-256 114-256 256 0 142 114 256 256 256 142 0 256-114 256-256 0-142-114-256-256-256z m0 478c-123 0-222-99-222-222 0-123 99-222 222-222 123 0 222 99 222 222 0 123-99 222-222 222z"/>
</font>
</defs>
</svg>
